アットウィキロゴ
POP TEAM EPIC
上坂すみれ

EXTREME

Level: 10.0
BPM: 142
Notes: 685

1
口口口口 |----|
口口口口 |----|
口口口口 |----|
口口口口 |----|
2
③口②② |①---|
①①②② |②-③④|
①①②口
①④口口

口⑤⑧口
口口⑨口
⑦口口⑦ |-⑤⑥-|
口口⑥口 |⑦-⑧⑨|
3
口⑤口口 |①-②③|
口口口口 |④-⑤-|
口口①口
②③④口

⑧口⑦⑦
口⑨口口
口⑥⑩⑥ |⑥-⑦⑧|
口⑪口⑪ |⑨⑩⑪-|
4
口③口④ |①-②-|
①口口② |③-④⑤|
口③口口
②口⑤口

口口⑥口
⑧⑨⑩⑪
口口口口 |-⑥⑦-|
口⑦口口 |⑧⑨⑩⑪|
5
③①③口 |①---|
⑤⑤⑤⑤ |②-③-|
①口①④ |④-⑤-|
口②口口 |----|
6
③⑤③① |①-②-|
⑥口口口 |③-④-|
口⑦①口 |⑤-⑥-|
②口⑧④ |⑦-⑧-|
7
③口③① |①-②-|
⑥口口⑥ |③-④-|
口口①口 |⑤-⑥-|
②⑤⑤④ |----|
8
①③⑤③ |①-②-|
口口口⑥ |③-④-|
口①⑦口 |⑤-⑥-|
④⑧口② |⑦-⑧-|
9
①③口③ |①-②-|
⑤口口⑤ |③-④-|
口①口口 |⑤-⑥-|
④⑥⑥② |----|
10
③⑤③① |①-②-|
⑥口口口 |③-④-|
口⑦①口 |⑤-⑥-|
②口⑧④ |⑦-⑧-|
11
③口③① |①-②-|
⑥口口⑥ |③-④-|
口口①口 |⑤-⑥-|
②⑤⑤④ |----|
12
①③⑤③ |①-②-|
口口口⑥ |③-④-|
口①⑦口 |⑤-⑥-|
④⑧口② |⑦-⑧-|
13
①③口③ |①-②-|
口口口口 |③-④-|
口①口口
④口口②

口口口口
⑧⑦⑥⑤
⑨⑩⑪⑫ |⑤⑥⑦⑧|
口口口口 |⑨⑩⑪⑫|
14
①①③③ |①-②-|
口口口口 |③-④-|
口口口口
②口口④

⑧口⑧口
口⑤口口
⑥口⑥口 |⑤-⑥-|
口⑦口口 |⑦-⑧-|
15
⑧⑦⑥① |①-②③|
④④口① |④-⑤-|
⑨②⑧⑦ |⑥-⑦-|
③⑤⑤口 |⑧-⑨-|
16
口④④① |①-②-|
口②①口 |③-④-|
口①口口
①口口③

⑤口口⑧
口口口口
⑥口口⑦ |⑤-⑥-|
口⑥⑦口 |⑦-⑧-|
17
②④⑥⑧ |①-②-|
①③⑤⑦ |③-④-|
口口口口 |⑤-⑥-|
①③⑤⑦ |⑦-⑧-|
18
①①③口 |①-②-|
口口口口 |③-④-|
口口口③
②口④口

口口口口
口⑥⑦⑤
口⑧口⑧ |⑤-⑥-|
口⑥口口 |⑦-⑧-|
19
③①口① |①-②-|
③口口④ |③-④-|
口口④口
②口口口

⑧⑥⑥口
口⑤口口
⑦⑦口口 |⑤-⑥-|
口口口口 |⑦-⑧-|
20
口④口③ |①-②-|
④口①口 |③-④-|
④口口①
②口口①

口口⑥⑧
口⑦⑦口
口⑦⑦口 |⑤-⑥-|
口口⑤口 |⑦-⑧-|
21
②口口口 |①-②-|
口口口口 |③-④-|
④口口口
①口口③

口口口⑨
口⑥口⑤
口⑧口⑦ |⑤⑥⑦⑧|
⑩口口口 |⑨-⑩-|
22
口①①口 |①---|
①②①② |----|
口口①② |②---|
口①②口 |----|
23
①①①口 |①---|
口②①② |----|
口①②口 |②---|
口②口② |----|
24
①口口口 |①---|
口口①口 |----|
①①口口
口口口口

③③口②
口口③②
口③口口 |②---|
口④口② |③-④-|
25
口口①口 |----|
②口③① |----|
④②口③ |①-②-|
口④口口 |③-④-|
26
①⑧⑤① |①②③-|
④②⑪④ |④⑤⑥-|
⑦⑥⑨⑦ |⑦⑧⑨-|
⑩⑫③⑩ |⑩⑪⑫-|
27
①⑧⑤① |①②③-|
④②⑪④ |④⑤⑥-|
⑦⑥⑨⑦ |⑦⑧⑨-|
⑩⑫③⑩ |⑩⑪⑫-|
28
①③①② |①-②-|
口口口口 |③-④-|
口③口②
④口口④

⑨口口⑨
⑤⑥⑦⑧
口口口口 |⑤⑥⑦⑧|
口⑩⑩口 |⑨-⑩-|
29
口①①③ |--①-|
口口③③ |②-③-|
②②②②
口口口口

④口⑤口
口口口口
口⑥口口 |--④-|
口口口口 |⑤-⑥-|
30
口口口口 |①②③④|
①②③④ |⑤⑥⑦⑧|
口口⑤①
⑤⑥⑦⑧

⑨⑩⑪⑫
⑬⑭⑮⑯
口⑨口⑬ |⑨⑩⑪⑫|
口口口口 |⑬⑭⑮⑯|
31
⑥⑤口⑥ |①②③④|
口口口口 |⑤-⑥-|
⑤口①口
①②③④

口口口口
口口⑩口
口⑨口⑦ |⑦-⑧-|
⑧口口口 |⑨-⑩-|
32
④③②① |①②③④|
口口口⑤ |⑤-⑥-|
①⑥口⑤
口⑥口口

口⑨口口
⑧口⑧口
口口口口 |⑦-⑧-|
⑩口⑩⑦ |⑨-⑩-|
33
口口②② |①-②-|
⑥⑧⑥④ |③-④-|
③口④① |⑤-⑥-|
⑤⑦⑧⑦ |⑦-⑧-|
34
①②③④ |①②③④|
⑥口口口 |⑤-⑥-|
口⑤⑤①
口⑥口口

口口⑩口
口⑧口⑧
口⑩口口 |⑦-⑧-|
⑨口口⑦ |⑨-⑩-|
35
④②口④ |①-②-|
①口口口 |③-④-|
③口②口
口口口口

口口口口
口口⑥口
口⑤⑧⑧ |⑤-⑥-|
⑦口口⑥ |⑦-⑧-|
36
⑤口口② |①-②③|
①①口⑥ |④-⑤⑥|
口③口口
口④④口

口⑧⑫⑪
口⑩⑩口
⑨口⑦⑦ |⑦-⑧⑨|
口口口口 |⑩-⑪⑫|
37
口②口口 |①---|
③口口④ |②③④-|
口④口口
口①①口

口口口口
口口⑥口
口口口口 |--⑤-|
口⑦口⑤ |⑥-⑦-|
38
⑧⑦⑥⑤ |①②③④|
①⑤口口 |⑤⑥⑦⑧|
④③②①
口口口口

口口口口
⑬口⑨口
⑯⑮⑭⑬ |⑨⑩⑪⑫|
⑫⑪⑩⑨ |⑬⑭⑮⑯|
39
④③②① |①②③④|
口①口⑤ |⑤-⑥-|
口口口口
⑥口⑤⑥

口口口⑧
⑦口⑨口
口⑩口口 |⑦-⑧-|
口口口口 |⑨-⑩-|
40
口口⑥口 |①②③④|
⑤口⑥① |⑤-⑥-|
⑤口口口
①②③④

⑦⑩口⑩
口口口口
口⑧口⑧ |⑦-⑧-|
口口⑨口 |⑨-⑩-|
41
⑦⑧⑦⑤ |①-②-|
①④口③ |③-④-|
④⑥⑧⑥ |⑤-⑥-|
②②口口 |⑦-⑧-|
42
口口⑥口 |①②③④|
①⑤⑤口 |⑤-⑥-|
口口口⑥
④③②①

⑦口口⑨
口口⑩口
⑧口⑧口 |⑦-⑧-|
口⑩口口 |⑨-⑩-|
43
口口口口 |①-②-|
口②口③ |③-④-|
口口口①
④口②④

⑥口口⑦
⑧⑧⑤口
口⑥口口 |⑤-⑥-|
口口口口 |⑦-⑧-|
44
口④④口 |①-②③|
口口③口 |④-⑤⑥|
⑥口①①
②口口⑤

口口口口
⑦⑦口⑨
口⑩⑩口 |⑦-⑧⑨|
⑪口⑧口 |⑩-⑪-|
45
口①①② |①-②-|
口④口口 |③④⑤-|
③口⑤口
口口口口

口口⑥口
⑦口口⑥
口⑦口口 |--⑥-|
口口⑦口 |⑦---|
46
①⑤口① |①-②③|
口口②口 |④-⑤-|
③口口口
⑤口口④

口口⑨口
⑨⑪口⑥
口⑦口口 |⑥⑦⑧-|
口口⑧⑩ |⑨-⑩⑪|
47
口②口口 |①-②-|
口口口④ |③④⑤-|
口⑤口②
③①口口

⑦口⑩⑥
口口⑧口
⑨口口⑩ |⑥-⑦⑧|
口口⑥口 |⑨-⑩-|
48
口口口⑤ |①②③-|
①④⑥④ |④-⑤⑥|
口口②口
口③口口

⑧口⑧口
口⑪口口
口⑦口⑨ |⑦-⑧-|
⑩口口口 |⑨⑩⑪-|
49
口①③③ |①-②-|
口口口口 |③-④-|
②口④④
口口①口

口⑦口口
⑤⑤⑦口
口⑧口口 |⑤-⑥-|
⑥⑥⑧口 |⑦-⑧-|
50
①口⑤① |①-②③|
口②口口 |④-⑤-|
口口口③
④口口⑤

口⑨口口
⑥口⑪⑨
口口⑦口 |⑥⑦⑧-|
⑩⑧口口 |⑨-⑩⑪|
51
口口②口 |①-②-|
④口口口 |③④⑤-|
②口⑤口
口口①③

⑥⑩口⑦
口⑧口口
⑩口口⑨ |⑥-⑦⑧|
口⑥口口 |⑨-⑩-|
52
⑤口口口 |①②③-|
④⑥④① |④-⑤⑥|
口②口口
口口③口

口⑧口⑧
口口口口
口口⑦口 |⑦-⑧-|
⑫⑪⑩⑨ |⑨⑩⑪⑫|
53
口口①⑤ |①-②-|
④②②口 |③-④⑤|
口③③①
口口口口

⑧口⑧口
口口口⑦
⑥口口口 |-⑥⑦-|
口口口口 |⑧---|
54
口①口口 |①---|
①①①口 |----|
口口①口 |----|
口①①① |----|

accuracy: 99.5%
最終更新:2024年09月08日 17:22