アットウィキロゴ
My HERO
04 Limited Sazabys

BASIC

Level: 3
BPM: 217
Notes: 167

1
口口口口 |----|
口口口口 |----|
口口口口 |----|
口口口口 |----|
2
口口口口 |----|
口口口口 |----|
口口口口 |----|
口口口口 |----|
3
口口口口 |①---|
口口口口 |----|
口口口口 |②---|
口②①口 |----|
4
口口口口 |①---|
口口口口 |----|
口②①口 |②---|
口口口口 |----|
5
口口口口 |①---|
口②①口 |----|
口口口口 |②---|
口口口口 |----|
6
口②①口 |①---|
口口口口 |----|
口口口口 |②---|
口口口口 |----|
7
②口口① |①---|
口口口口 |----|
口口口口 |②---|
口口口口 |----|
8
口口口口 |①---|
②口口① |----|
口口口口 |②---|
口口口口 |----|
9
口口口口 |①---|
口口口口 |----|
②口口① |②---|
口口口口 |----|
10
口口口口 |①---|
口口口口 |----|
口口口口 |②---|
②口口① |----|
11
口口口口 |①---|
口口口口 |----|
口口②口 |②---|
口口①口 |----|
12
口口②口 |①---|
口口①口 |----|
口口口口 |②---|
口口口口 |----|
13
口口口口 |①---|
口口口口 |----|
口②口口 |②---|
口①口口 |----|
14
口②口口 |①---|
口①口口 |----|
口口口口 |②---|
口口口口 |----|
15
口口①口 |①---|
口口②口 |----|
口口口口 |②---|
口口口口 |----|
16
①口口口 |①---|
②口口口 |----|
口口口口 |②---|
口口口口 |----|
17
口口口口 |①---|
口口口口 |----|
口口①口 |②---|
口口②口 |----|
18
口口口口 |①---|
口口口口 |----|
①口口口 |②---|
②口口口 |----|
19
口口口口 |①---|
口口口口 |----|
口口口口 |②---|
②口①口 |----|
20
口口口口 |①---|
口口口口 |----|
②口①口 |②---|
口口口口 |----|
21
口口口口 |①---|
②口①口 |----|
口口口口 |②---|
口口口口 |----|
22
②口①口 |①---|
口口口口 |----|
口口口口 |②---|
口口口口 |----|
23
口口①口 |①---|
口口②口 |----|
口口口口 |②---|
口口口口 |----|
24
口①口口 |①---|
口②口口 |----|
口口口口 |②---|
口口口口 |----|
25
口口口口 |①---|
口口口口 |----|
口口①口 |②---|
口口②口 |----|
26
口口口口 |①---|
口口口口 |----|
口①口口 |②---|
口②口口 |----|
27
口口口口 |①---|
口口口口 |----|
口口②① |②---|
口口口口 |----|
28
口口口口 |①---|
口口口口 |----|
①②口口 |②---|
口口口口 |----|
29
口口口口 |①---|
口口②① |----|
口口口口 |②---|
口口口口 |----|
30
口口口口 |①---|
①②口口 |----|
口口口口 |②---|
口口口口 |----|
31
口口①口 |①---|
口口②口 |----|
口口口口 |②---|
口口口口 |----|
32
口口口口 |①---|
口口口口 |----|
口①口口 |②---|
口②口口 |----|
33
口口口口 |①---|
口口口口 |----|
口口②口 |②---|
口口①口 |----|
34
口口②口 |①---|
口口①口 |----|
口口口口 |②---|
口口口口 |----|
35
口口口口 |①---|
口口口口 |----|
口②口口 |②---|
口①口口 |----|
36
②口②口 |①---|
口①口口 |----|
口口口口 |②---|
口口口口 |----|
37
口口口口 |①---|
口口口口 |----|
口口②① |②---|
口口口口 |----|
38
口口口口 |①---|
口口口口 |----|
②①口口 |②---|
口口口口 |----|
39
口口口口 |①---|
口口②① |----|
口口口口 |②---|
口口口口 |----|
40
口口口口 |①---|
②①口口 |----|
口口口口 |②---|
口口口口 |----|
41
口口口① |①---|
口口口② |----|
口口口口 |②---|
口口口口 |----|
42
口口口口 |①---|
口口口口 |----|
口口①口 |②---|
口口②口 |----|
43
①口口口 |①---|
②口口口 |----|
口口口口 |②---|
口口口口 |----|
44
口口口口 |①---|
口口口口 |----|
口①口口 |②---|
口②口口 |----|
45
口②口① |①---|
口口口口 |----|
口口口口 |②---|
口口口口 |----|
46
口口口口 |①---|
口②①口 |----|
口口口口 |②---|
口口口口 |----|
47
口口口口 |①---|
口口口口 |----|
口②①口 |②---|
口口口口 |----|
48
口口口口 |①---|
口口口口 |----|
口口口口 |②---|
口②①口 |----|
49
口口①口 |①---|
口口②口 |----|
口口口口 |②---|
口口口口 |----|
50
口口口口 |①---|
口口口口 |----|
口①口口 |②---|
口②口口 |----|
51
口口①口 |①---|
口②口口 |----|
口口口口 |②---|
口口口口 |----|
52
口口口口 |①---|
口口口口 |----|
口①口口 |----|
口口口口 |----|
53
口口口口 |①---|
口②口② |----|
口口①口 |②---|
口口口口 |----|
54
口①口① |①---|
口口口口 |----|
口口口口 |----|
口口口口 |----|
55
口口口口 |①---|
口口①口 |----|
口口②口 |②---|
口口口口 |----|
56
口口口口 |①---|
口①口口 |----|
口②口口 |②---|
口口口口 |----|
57
口口口① |①---|
口口口口 |----|
口口口② |②---|
口口口口 |----|
58
口①口口 |①---|
口口口口 |----|
口②口口 |②---|
口口口口 |----|
59
口口口口 |①---|
口口①口 |----|
口口口口 |②---|
口口②口 |----|
60
口口口口 |①---|
口①口口 |----|
口口口口 |②---|
口②口口 |----|
61
口口口口 |①---|
口口口① |----|
口口②口 |②---|
口口口口 |----|
62
口口口口 |①---|
①口口口 |----|
口②口口 |②---|
口口口口 |----|
63
口口口① |①---|
口口口口 |----|
口口口② |②---|
口口口口 |----|
64
①口口口 |①---|
口口口口 |----|
②口口口 |②---|
口口口口 |----|
65
口口口口 |①---|
口口口口 |----|
口口②口 |②---|
口口①口 |----|
66
口口②口 |①---|
口口①口 |----|
口口口口 |②---|
口口口口 |----|
67
口①口① |①---|
口口口口 |----|
口口口口 |----|
口口口口 |----|
68
口口口口 |①---|
口口口口 |----|
口①口① |----|
口口口口 |----|
69
口口口口 |①---|
口口口口 |----|
口口口口 |②---|
口②①口 |----|
70
口口口口 |①---|
②口口口 |----|
口①口口 |②---|
口口口口 |----|
71
口口口口 |①---|
口口口口 |----|
口口①口 |②---|
②口口口 |----|
72
口口口口 |①---|
②口口口 |----|
①口口口 |②---|
口口口口 |----|
73
口口口口 |①---|
口口①口 |----|
口②口口 |②---|
口口口口 |----|
74
②口口口 |①---|
口①口口 |----|
口口口口 |②---|
口口口口 |----|
75
口口①口 |①---|
口口口口 |----|
口②口口 |②---|
口口口口 |----|
76
口②口口 |①---|
口①口口 |----|
口口口口 |②---|
口口口口 |----|
77
口②口① |①---|
口口口口 |----|
口口口口 |②---|
口口口口 |----|
78
口口口口 |①---|
口①口口 |----|
口②口口 |②---|
口口口口 |----|
79
口口口口 |①---|
口②口① |----|
口口口口 |②---|
口口口口 |----|
80
口口口口 |①---|
口口口口 |----|
口①口口 |②---|
口②口口 |----|
81
口口口口 |①---|
②口口口 |----|
口口口① |②---|
口口口口 |----|
82
口口口口 |①---|
口口口口 |----|
①口口口 |②---|
②口口口 |----|
83
口口口口 |①---|
口②口口 |----|
口口口口 |②---|
口口口① |----|
84
口口口口 |①---|
口口口口 |----|
口①口口 |②---|
口②口口 |----|
85
口口口口 |----|
口口口口 |----|
口口口口 |----|
口口口口 |----|
86
口口口口 |----|
口口①口 |----|
口②口口 |①---|
口口口口 |--②-|

accuracy: 99.5%
最終更新:2024年09月08日 17:27