アットウィキロゴ
My HERO
04 Limited Sazabys

ADVANCED

Level: 6
BPM: 217
Notes: 355

1
口口口口 |----|
口口口口 |----|
口口口口 |----|
口口口口 |----|
2
④口口④ |①---|
口口③口 |②---|
口口②口 |③---|
口口①口 |④---|
3
口④口口 |①---|
口③口口 |②---|
口口②口 |③---|
口口①口 |④---|
4
④口口口 |①---|
③口口口 |②---|
口口口② |③---|
口口口① |④---|
5
口口口口 |①---|
口口口口 |②---|
③④口口 |③---|
口口②① |④---|
6
口口①口 |①---|
口口②口 |②---|
③口口口 |③---|
④口口口 |④---|
7
口口口口 |①---|
口口口口 |②---|
④口口② |③---|
口③①口 |④---|
8
④口口② |①---|
口③①口 |②---|
口口口口 |③---|
口口口口 |④---|
9
口口口口 |①---|
口口口口 |②---|
③口口① |③---|
口④②口 |④---|
10
口口①口 |①---|
口口②口 |②---|
③口口口 |③---|
④口口口 |④---|
11
口口④口 |①---|
口口③口 |②---|
口口②口 |③---|
口口口① |④---|
12
口④口口 |①---|
口③口口 |②---|
口②口① |③---|
口口口口 |④---|
13
④口口口 |①---|
③口口① |②---|
②口口口 |③---|
口口口口 |④---|
14
口口④① |①---|
口口③口 |②---|
口口②口 |③---|
口口口口 |④---|
15
②口口① |①---|
口④③口 |②---|
口口口口 |③---|
口口口口 |④---|
16
口口口口 |①---|
口口口口 |②---|
②口口① |③---|
口④③口 |④---|
17
口②口① |①---|
④口③口 |②---|
口口口口 |③---|
口口口口 |④---|
18
口口口口 |①---|
口口口口 |②---|
口②口① |③---|
④口③口 |④---|
19
口口口口 |①---|
口口口口 |②---|
④③②口 |③---|
口口口① |④---|
20
口口口口 |①---|
④③②口 |②---|
口口口① |③---|
口口口口 |④---|
21
④③②口 |①---|
口口口① |②---|
口口口口 |③---|
口口口口 |④---|
22
口口口① |①---|
④③②口 |②---|
口口口口 |③---|
口口口口 |④---|
23
口口口口 |①---|
口口口口 |②---|
口④③口 |③---|
②口口① |④---|
24
口④③口 |①---|
②口口① |②---|
口口口口 |③---|
口口口口 |④---|
25
口口口口 |①---|
口口口口 |②---|
口②③口 |③---|
口④①口 |④---|
26
口②③口 |①---|
口④①口 |②---|
口口口口 |③---|
口口口口 |④---|
27
口口口口 |①---|
③口口口 |②---|
④口口① |③---|
口口口② |④---|
28
④③②口 |①---|
口口口口 |②---|
口口口口 |③---|
①口口口 |④---|
29
口口口口 |①---|
④③口口 |②---|
口口②① |③---|
口口口口 |④---|
30
口口①口 |①---|
口口②口 |②---|
口③口口 |③---|
口④口口 |④---|
31
口口口口 |①---|
③口口口 |②---|
④口口① |③---|
口口口② |④---|
32
④③②口 |①---|
口口口口 |②---|
口口口口 |③---|
①口口口 |④---|
33
口口口口 |①---|
口口口口 |②---|
④③口口 |③---|
口口②① |④---|
34
④③口口 |①---|
口口②① |②---|
口口口口 |③---|
口口口口 |④---|
35
口口口口 |①---|
④③口口 |②---|
口口②① |③---|
口口口口 |④---|
36
口②②口 |①---|
口②②口 |----|
口口口口 |②---|
口①①口 |----|
37
口口口口 |①---|
口口口口 |②---|
口④③口 |③---|
②口口① |④---|
38
口④③口 |①---|
②口口① |②---|
口口口口 |③---|
口口口口 |④---|
39
口口口口 |①---|
口口口口 |②---|
口④口③ |③---|
②口①口 |④---|
40
④④口③ |①---|
②口①口 |②---|
口口口口 |③---|
口口口口 |④---|
41
口口口口 |①---|
口口口口 |②---|
口②③口 |③---|
口④①口 |④---|
42
口④①口 |①---|
口②③口 |②---|
口口口口 |③---|
口口口口 |④---|
43
②口口① |①---|
口④③口 |②---|
口口口口 |③---|
口口口口 |④---|
44
口口口口 |①---|
口口口口 |②---|
②口口① |③---|
④④③口 |④---|
45
口口口口 |①---|
口口口口 |②---|
②口③口 |③---|
口④口① |④---|
46
②口③口 |①---|
口④口① |②---|
口口口口 |③---|
口口口口 |④---|
47
口口口口 |①---|
口口口口 |②---|
口④口③ |③---|
②口①口 |④---|
48
④④口③ |①---|
②口①口 |②---|
口口口口 |③---|
口口口口 |④---|
49
口口口口 |①---|
口口口口 |②---|
口②③口 |③---|
口④①口 |④---|
50
口④①口 |①---|
口②③口 |②---|
口口口口 |③---|
口口口口 |④---|
51
②口口① |①---|
口④③口 |②---|
口口口口 |③---|
口口口口 |④---|
52
口口口口 |①---|
口口口口 |----|
口口口口 |----|
口①①口 |----|
53
②口口② |①---|
口①①口 |----|
②口口② |②---|
口口口口 |----|
54
口②②口 |①---|
口口口口 |②---|
口①①口 |----|
口口口口 |----|
55
口口口口 |①---|
口口口口 |②---|
③口口① |③---|
口④②口 |④---|
56
口口口口 |①---|
口③①口 |②---|
口④②口 |③---|
口口口口 |④---|
57
③口口① |①---|
口④②口 |②---|
口口口口 |③---|
口口口口 |④---|
58
口口口口 |①---|
口口口口 |②---|
口③①口 |③---|
口④②口 |④---|
59
口口口口 |①---|
③口口① |②---|
口④②口 |③---|
口口口口 |④---|
60
口口口口 |①---|
口③①口 |②---|
口口口口 |③---|
口④②口 |④---|
61
③④②① |①---|
口口口口 |②---|
口口口口 |③---|
口口口口 |④---|
62
口口口口 |①---|
③口口① |②---|
口④②口 |③---|
口口口口 |④---|
63
口口口口 |①---|
口口口口 |②---|
③口口① |③---|
口④②口 |④---|
64
③口口① |①---|
④口口② |②---|
口口口口 |③---|
口口口口 |④---|
65
口④④口 |①---|
口③③口 |②---|
口②②口 |③---|
口①①口 |④---|
66
①口口① |①---|
②口口② |②---|
③口口③ |③---|
口④④口 |④---|
67
口①①口 |①---|
口①①口 |----|
口口口口 |----|
口口口口 |----|
68
口口口口 |①---|
口口口口 |----|
口①①口 |----|
口①①口 |----|
69
口口口口 |①---|
口口口口 |----|
口口口口 |②---|
②①①③ |③---|
70
口口口口 |①---|
③口口④ |②---|
①口口② |③---|
口口口口 |④---|
71
口口口口 |①---|
口口口口 |----|
②①①③ |②---|
口口口口 |③---|
72
③口口④ |①---|
①口口② |②---|
口口口口 |③---|
口口口口 |④---|
73
口口口口 |①---|
口①①口 |----|
口口口口 |②---|
②口口③ |③---|
74
口口口口 |①---|
③口口④ |②---|
①口口② |③---|
口口口口 |④---|
75
口①①口 |①---|
口口口口 |----|
②口口③ |②---|
口口口口 |③---|
76
③口口④ |①---|
①口口② |②---|
口口口口 |③---|
口口口口 |④---|
77
口口口口 |①---|
口口口口 |----|
口口口③ |②---|
②①①口 |③---|
78
口口口口 |①---|
③口口④ |②---|
①口口口 |③---|
口口口② |④---|
79
口口口口 |①---|
口口口③ |----|
②①①口 |②---|
口口口口 |③---|
80
③口口④ |①---|
①口口口 |②---|
口口口② |③---|
口口口口 |④---|
81
口口口口 |①---|
口①①口 |----|
口口口③ |②---|
②口口口 |③---|
82
口口口口 |①---|
③口口④ |②---|
①口口口 |③---|
口口口② |④---|
83
口①①口 |①---|
口口口③ |----|
②口口口 |②---|
口口口口 |③---|
84
③口口④ |①---|
①口口口 |②---|
口口口② |③---|
口口口口 |④---|
85
口口口④ |①---|
口口口③ |②---|
口口口② |③---|
口口口① |④---|
86
口口口口 |①---|
③⑤④口 |②---|
②口口口 |③---|
①口口口 |④-⑤-|

accuracy: 99.5%
最終更新:2024年09月08日 17:27