アットウィキロゴ
My HERO
04 Limited Sazabys

EXTREME

Level: 8
BPM: 217
Notes: 648

1
口口口口 |----|
口口口口 |----|
口口口口 |----|
口口口口 |----|
2
④口口④ |①---|
③口口③ |②---|
②口口② |③---|
口①①口 |④---|
3
口口口口 |①-②-|
⑧④①⑤ |③-④-|
⑥②③⑦ |⑤-⑥-|
口口口口 |⑦-⑧-|
4
⑧口①⑦ |①-②-|
口⑥②口 |③-④-|
口③⑤口 |⑤-⑥-|
口④口口 |⑦-⑧-|
5
口口口口 |①-②-|
③口口① |③-④-|
④⑥⑤② |⑤-⑥-|
口⑧⑦口 |⑦-⑧-|
6
口口②① |①-②-|
④③口⑤ |③-④-|
口口口⑥ |⑤-⑥-|
口口⑦口 |⑦---|
7
口口口口 |①-②-|
⑧④①⑤ |③-④-|
⑥②③⑦ |⑤-⑥-|
口口口口 |⑦-⑧-|
8
⑧口①⑦ |①-②-|
口⑥②口 |③-④-|
口③⑤口 |⑤-⑥-|
口④口口 |⑦-⑧-|
9
口口口口 |①-②-|
③口口① |③-④-|
④⑥⑤② |⑤-⑥-|
口⑧⑦口 |⑦-⑧-|
10
口口②① |①-②-|
④③口⑤ |③-④-|
口口口⑥ |⑤-⑥-|
口口⑦口 |⑦---|
11
口口口口 |①---|
口⑤②口 |②-③-|
口③④口 |④-⑤-|
①口⑥① |⑥---|
12
口口口口 |①---|
口⑤②口 |②-③-|
①③④① |④-⑤-|
口口⑥口 |⑥---|
13
口口口口 |①---|
①⑤②① |②-③-|
口③④口 |④-⑤-|
口口⑥口 |⑥---|
14
①口口① |①---|
口⑤②口 |②-③-|
口③④口 |④-⑤-|
口口⑥口 |⑥---|
15
口②①③ |①-②-|
⑤口④口 |③④⑤-|
口⑦⑥⑧ |⑥-⑦-|
⑩口⑨口 |⑧⑨⑩-|
16
口②①③ |①-②-|
⑤口④口 |③④⑤-|
口⑦⑥⑧ |⑥-⑦-|
⑩口⑨口 |⑧⑨⑩-|
17
口②①③ |①-②-|
⑤口④口 |③④⑤-|
口⑦⑥⑧ |⑥-⑦-|
⑩口⑨口 |⑧⑨⑩-|
18
口②①③ |①-②-|
⑤⑦④⑥ |③④⑤-|
⑩口口口 |⑥-⑦-|
口⑨⑧口 |⑧⑨⑩-|
19
口口口口 |①---|
口⑤②口 |②-③-|
口③④口 |④-⑤-|
①口⑥① |⑥---|
20
口口口口 |①---|
口⑤②口 |②-③-|
①③④① |④-⑤-|
口口⑥口 |⑥---|
21
口口口口 |①---|
①⑤②① |②-③-|
口③④口 |④-⑤-|
口口⑥口 |⑥---|
22
①口口① |①---|
口⑤②口 |②-③-|
口③④口 |④-⑤-|
口口⑥口 |⑥---|
23
口②①③ |①-②-|
⑤口④口 |③④⑤-|
口⑦⑥⑧ |⑥-⑦-|
⑩口⑨口 |⑧⑨⑩-|
24
口②①③ |①-②-|
⑤口④口 |③④⑤-|
口⑦⑥⑧ |⑥-⑦-|
⑩口⑨口 |⑧⑨⑩-|
25
口②①③ |①-②-|
⑤口④口 |③④⑤-|
口⑦⑥⑧ |⑥-⑦-|
⑩口⑨口 |⑧⑨⑩-|
26
④②①③ |①-②-|
⑥口⑤口 |③④⑤-|
口⑧⑦口 |⑥-⑦⑧|
口⑩⑨口 |⑨-⑩-|
27
口口口③ |①---|
口④口口 |②-③-|
①⑤口② |--④-|
口口口口 |--⑤-|
28
口口口口 |--①-|
②口口① |②-③-|
④口口③ |④-⑤-|
⑥口口⑤ |⑥---|
29
⑤口口③ |①---|
口④②口 |②-③-|
口口口口 |--④-|
口①口口 |--⑤-|
30
口口口口 |--①-|
口⑥⑦口 |②-③-|
口④⑤③ |④-⑤-|
②口口① |⑥-⑦-|
31
口口④口 |①---|
②口口口 |②-③-|
口⑤口口 |--④-|
③①口口 |--⑤-|
32
口口口⑦ |--①-|
②口口① |②-③-|
④口口③ |④-⑤-|
⑥口口⑤ |⑥-⑦-|
33
口④④口 |①---|
口③③口 |②---|
口②②口 |③---|
口①①口 |④---|
34
口口口口 |----|
口口口口 |①---|
口②口口 |②---|
口①口口 |----|
35
口口口口 |①---|
口③口口 |--②-|
口口③口 |----|
②②①① |③---|
36
②口口② |①---|
②口①② |----|
口①口口 |②---|
口口口口 |----|
37
口口口口 |①-②-|
口口口口 |③-④-|
②⑧⑦① |⑤-⑥-|
⑥④③⑤ |⑦-⑧-|
38
口口口口 |①-②-|
④②①③ |③-④-|
⑥口口⑤ |⑤-⑥-|
口⑧⑦口 |⑦-⑧-|
39
口②①口 |①-②-|
口④③口 |③-④-|
⑧口口⑦ |⑤-⑥-|
⑥口口⑤ |⑦-⑧-|
40
②⑥口① |①-②-|
⑥口③口 |③-④-|
口④口口 |⑤---|
口口⑤口 |⑥---|
41
⑧口口⑦ |①-②-|
口④⑤① |③-④-|
②⑥③口 |⑤-⑥-|
口口口口 |⑦-⑧-|
42
口口口口 |①-②-|
③口口① |③-④-|
④⑧⑦② |⑤-⑥-|
口⑥⑤口 |⑦-⑧-|
43
口口口口 |①-②-|
⑥口⑦⑤ |③-④-|
④⑧口③ |⑤-⑥-|
②口口① |⑦-⑧-|
44
口⑥口口 |①-②-|
⑥②口⑤ |③-④-|
口口①口 |⑤---|
④口口③ |⑥---|
45
口口口口 |①-②-|
口口口口 |③-④-|
②⑧⑦① |⑤-⑥-|
⑥④③⑤ |⑦-⑧-|
46
口口口口 |①-②-|
④②①③ |③-④-|
⑥口口⑤ |⑤-⑥-|
口⑧⑦口 |⑦-⑧-|
47
口②①口 |①-②-|
口④③口 |③-④-|
⑧口口⑦ |⑤-⑥-|
⑥口口⑤ |⑦-⑧-|
48
②⑥口① |①-②-|
⑥口③口 |③-④-|
口④口口 |⑤---|
口口⑤口 |⑥---|
49
口④④口 |①---|
口③③口 |②---|
②口②口 |③---|
口①口① |④---|
50
①口口① |①---|
②口口② |②---|
③口口③ |③---|
④口口④ |④---|
51
口①①口 |①---|
口口口口 |--②-|
口②②口 |③---|
口③③口 |----|
52
口⑥⑥口 |①--②|
口⑤口① |--③-|
②口④口 |-④----⑤-|
③口口口 |--⑥-|
53
①口口① |①---|
④口⑥② |②-③-|
⑤口⑦③ |④-⑤-|
口口口口 |⑥-⑦-|
54
口口口⑦ |①-②-|
口①口⑧ |③-④-|
口②口口 |⑤-⑥-|
⑤⑥④③ |⑦-⑧-|
55
①⑤③口 |①-②-|
②⑥④口 |③-④-|
口口⑧⑦ |⑤-⑥-|
口口口口 |⑦-⑧-|
56
口⑥口口 |①-②-|
⑥口口口 |③-④-|
①②口口 |⑤---|
口④③⑤ |⑥---|
57
⑧口口⑥ |①-②-|
口⑦⑤口 |③-④-|
④③①② |⑤-⑥-|
口口口口 |⑦-⑧-|
58
⑧口口⑥ |①-②-|
口⑦⑤口 |③-④-|
口口口口 |⑤-⑥-|
④③①② |⑦-⑧-|
59
口口口口 |①-②-|
口⑦⑤口 |③-④-|
⑧④②⑥ |⑤-⑥-|
口③①口 |⑦-⑧-|
60
④口⑥② |①-②-|
③⑥口① |③-④-|
口口口口 |⑤---|
口口⑤口 |⑥---|
61
⑧口口⑥ |①-②-|
口⑦⑤口 |③-④-|
④③①② |⑤-⑥-|
口口口口 |⑦-⑧-|
62
⑧口口⑥ |①-②-|
口⑦⑤口 |③-④-|
口口口口 |⑤-⑥-|
④③①② |⑦-⑧-|
63
口口口口 |①-②-|
口⑦⑤口 |③-④-|
⑧④②⑥ |⑤-⑥-|
口③①口 |⑦-⑧-|
64
④口⑥② |①-②-|
③⑥口① |③-④-|
口口口口 |⑤---|
口口⑤口 |⑥---|
65
口①⑦口 |①-②-|
口口⑧③ |③-④-|
⑤口口口 |⑤-⑥-|
⑥②口④ |⑦-⑧-|
66
口口口口 |①-②-|
④口口③ |③-④-|
⑥①口⑤ |⑤-⑥-|
⑧②口⑦ |⑦-⑧-|
67
⑥口口⑤ |①-②-|
口④①口 |③-④-|
⑧②③⑦ |⑤-⑥-|
口口口口 |⑦-⑧-|
68
口⑥⑥口 |①-②-|
②口口① |③-④-|
口⑤⑤口 |⑤---|
口④③口 |⑥---|
69
口口口口 |①---|
口⑦④口 |②-③-|
口⑤⑥口 |④-⑤-|
①③②① |⑥-⑦-|
70
口口②① |--①-|
口口⑤口 |②-③-|
口⑥口口 |④-⑤-|
③④⑦口 |⑥-⑦-|
71
口⑤③口 |①---|
④⑦口② |②-③-|
①口⑥① |④-⑤-|
口口口口 |⑥-⑦-|
72
③口④口 |--①-|
口口⑤口 |②-③-|
口⑥口① |④-⑤-|
口②⑦口 |⑥-⑦-|
73
口⑤口④ |①---|
①⑦口① |②-③-|
口口⑥② |④-⑤-|
口③口口 |⑥-⑦-|
74
口口④口 |--①-|
口口⑤① |②-③-|
口⑥口⑦ |④-⑤-|
口口②③ |⑥-⑦-|
75
①④口① |①---|
口⑦⑤口 |②-③-|
口口⑥口 |④-⑤-|
口③②口 |⑥-⑦-|
76
③⑥⑤① |--①-|
⑦口口口 |②-③-|
④口口② |④-⑤-|
口口口口 |⑥-⑦-|
77
口口口口 |①---|
口⑦④口 |②-③-|
口⑤⑥口 |④-⑤-|
①③②① |⑥-⑦-|
78
口口②① |--①-|
口口⑤口 |②-③-|
口⑥口口 |④-⑤-|
③④⑦口 |⑥-⑦-|
79
口⑤③口 |①---|
④⑦口② |②-③-|
①口⑥① |④-⑤-|
口口口口 |⑥-⑦-|
80
③口④口 |--①-|
口口⑤口 |②-③-|
口⑥口① |④-⑤-|
口②⑦口 |⑥-⑦-|
81
口⑤口④ |①---|
①⑦口① |②-③-|
口口⑥② |④-⑤-|
口③口口 |⑥-⑦-|
82
口口④口 |--①-|
口口⑤① |②-③-|
口⑥口⑦ |④-⑤-|
口口②③ |⑥-⑦-|
83
①④口① |①---|
口⑦⑤口 |②-③-|
口口⑥口 |④-⑤-|
口③②口 |⑥-⑦-|
84
③⑥⑤① |--①-|
⑦口口口 |②-③-|
④口口② |④-⑤-|
口口口口 |⑥-⑦-|
85
口口口口 |①---|
⑦口①④ |②-③-|
⑤②③口 |④-⑤-|
口口⑥口 |⑥-⑦-|
86
②口口① |①-②-|
⑧④③⑧ |③-④-|
⑧⑥⑤⑧ |⑤-⑥-|
口口⑦口 |⑦-⑧-|

accuracy: 99.5%
最終更新:2024年09月08日 17:27