アットウィキロゴ
MONSTER DANCE
KEYTALK

BASIC

Level: 3
BPM: 152-157
Notes: 165

1
口口口口 |(157)----|
口口口口 |----|
口口口口 |----|
口口口口 |----|
2
口口口口 |①---|
口①①口 |----|
口口口口 |----|
口口口口 |----|
3
口口口口 |①---|
口口口口 |----|
口口口口 |----|
口①①口 |----|
4
口口口口 |①---|
口①①口 |----|
口口口口 |----|
口口口口 |----|
5
口①①口 |①---|
口②②口 |②---|
口③③口 |③---|
口口口口 |----|
6
口口口口 |①---|
口口②① |----|
口口口口 |②---|
口口口口 |----|
7
口口口口 |①---|
②①口口 |----|
口口口口 |②---|
口口口口 |----|
8
口口口口 |①---|
口口口口 |----|
①②口口 |②---|
口口口口 |----|
9
口口口口 |①---|
口口口口 |----|
口口①② |②---|
口口口口 |----|
10
口口口口 |①---|
口口②① |----|
口口口口 |②---|
口口口口 |----|
11
口口口口 |①---|
②①口口 |----|
口口口口 |②---|
口口口口 |----|
12
口口口口 |①---|
口口口口 |----|
①②口口 |②---|
口口口口 |----|
13
口口口口 |①---|
口口①口 |②---|
口口②口 |③---|
口口③口 |----|
14
口口口口 |①---|
口口口口 |----|
①②口口 |②---|
口口口口 |----|
15
口口口② |①---|
口口③口 |----|
口口①口 |②---|
口口口口 |③---|
16
口口口口 |①---|
①②口口 |----|
口口口口 |②---|
口口口口 |----|
17
口口口口 |①---|
口口①口 |----|
口口口口
口口口口

口口口②
口口③口
口口口口 |②---|
口口口口 |③---|
18
口口口口 |①---|
口口口口 |----|
口口②① |②---|
口口口口 |----|
19
②口口口 |①---|
口③口口 |----|
口①口口 |②---|
口口口口 |③---|
20
口口口口 |①---|
口口②① |----|
口口口口 |②---|
口口口口 |----|
21
口①①口 |①---|
口②②口 |②---|
口③③口 |③---|
口口口口 |----|
22
①口口口 |(152)①---|
②口口口 |----|
口口口口 |②---|
口口口口 |----|
23
口①口口 |①---|
口②口口 |----|
口口口口 |②---|
口口口口 |----|
24
口口①口 |①---|
口口②口 |----|
口口口口 |②---|
口口口口 |----|
25
口口口① |①---|
口口口② |----|
口口口口 |②---|
口口口口 |----|
26
口②①口 |(155)①---|
口口口口 |----|
口口口口 |②---|
口口口口 |----|
27
口口口口 |①---|
口②①口 |----|
口口口口 |②---|
口口口口 |----|
28
口口口口 |(154)①---|
口口口口 |----|
口②①口 |②---|
口口口口 |----|
29
口口口口 |①---|
口口口口 |----|
口口口口 |②---|
口②①口 |----|
30
口口口口 |①---|
口口口口 |----|
口②口① |②---|
口口口口 |----|
31
口口口口 |①---|
口②口① |----|
口口口口 |②---|
口口口口 |----|
32
口口①口 |①--②|
口口②口 |--③-|
口口③口 |----|
口口口口 |----|
33
口①口口 |①--②|
口②口口 |--③-|
口③口口 |----|
口口口口 |----|
34
口口口口 |①---|
口口口口 |----|
①口②口 |②---|
口口口口 |----|
35
口口口口 |①---|
①口②口 |----|
口口口口 |②---|
口口口口 |----|
36
口①口口 |①--②|
口②口口 |--③-|
口③口口 |----|
口口口口 |----|
37
口口口口 |①---|
口②①口 |----|
口口口口 |②---|
口口口口 |----|
38
口③口① |(157)①---|
口口口口 |②---|
口口②口 |③---|
口口口口 |----|
39
口口口口 |①---|
口口①口 |----|
口②口口 |②---|
口口口口 |----|
40
口口口口 |①---|
①②③口 |②---|
口口口口 |③---|
口口口口 |----|
41
口①口口 |①---|
口口②口 |----|
口口口口 |②---|
口口口口 |----|
42
①口③口 |①---|
口口口口 |②---|
口②口口 |③---|
口口口口 |----|
43
口口口口 |①---|
口①口口 |----|
口口②口 |②---|
口口口口 |----|
44
口口口口 |①---|
②②①① |----|
口口口口 |②---|
口口口口 |----|
45
口①①口 |①---|
口②②口 |②---|
口③③口 |③---|
口口口口 |----|
46
口③④① |①---|
口口口口 |②---|
口口②口 |③---|
口口口口 |④---|
47
口口口口 |①---|
①②③④ |②---|
口口口口 |③---|
口口口口 |④---|
48
口①口口 |①---|
口②口④ |②---|
口③口口 |③---|
口口口口 |④---|
49
口口口口 |①---|
③②①口 |②---|
口口口口 |③---|
口口口口 |----|
50
①④③口 |①---|
口口口口 |②---|
口②口口 |③---|
口口口口 |④---|
51
口口口口 |①---|
④③②① |②---|
口口口口 |③---|
口口口口 |④---|
52
口口口口 |(152)①---|
②②①① |----|
口口口口 |②---|
口口口口 |----|
53
口口口口 |①---|
②②①① |----|
口口口口 |②---|
口口口口 |----|
54
口口口口 |①---|
②②①① |----|
口口口口 |②---|
口口口口 |----|
55
口①①口 |①---|
口②②口 |②---|
口③③口 |③---|
口口口口 |----|
56
口口口口 |①---|
口①①口 |----|
口口口口 |----|
口口口口 |----|
57
口口口口 |①---|
口口口口 |----|
口口口口 |----|
口①①口 |----|
58
口口口口 |①---|
口①①口 |----|
口口口口 |----|
口口口口 |----|
59
口口口口 |①---|
①口口① |②---|
②口口② |③---|
③口口③ |----|

accuracy: 99.5%
最終更新:2024年09月08日 18:36