アットウィキロゴ
MONSTER DANCE
KEYTALK

ADVANCED

Level: 6
BPM: 152-157
Notes: 392

1
口口口口 |(157)----|
口口口口 |----|
口口口口 |----|
口口口口 |----|
2
口口口口 |①---|
口②②口 |----|
①①①① |----|
口口口口 |--②-|
3
口④③② |①---|
口口口口 |②---|
①①①① |③---|
口口口口 |④---|
4
口口口口 |①---|
②②②② |----|
①①①① |②---|
口口口口 |----|
5
①口口① |①---|
口②②口 |②---|
口口口口
口口口口

口口④④
口口口口
③口口③ |③---|
口口口口 |④---|
6
①口口口 |①---|
①口口② |②---|
口口口口
口口口口

④口口口
④口口口
口口口口 |③---|
口口③口 |--④-|
7
口③③口 |--①-|
口口口口 |②---|
口②①口 |③---|
口口口口 |----|
8
①口口口 |①---|
①口口② |②---|
④口口④ |③---|
口口③口 |--④-|
9
口②②口 |----|
口①①口 |①---|
口口口口 |②---|
口口口口 |----|
10
口口口① |①---|
②口口① |②---|
口口口口
口口口口

口口口④
口口口④
口口口口 |③---|
口③口口 |--④-|
11
口③③口 |--①-|
口口口口 |②---|
口①②口 |③---|
口口口口 |----|
12
口口口① |①---|
②口口① |②---|
口④④口 |③---|
口③口口 |④---|
13
①口口① |①---|
②口口② |②---|
③口口③ |③---|
口口口口 |----|
14
口口口口 |①---|
口②①口 |②---|
口④③口 |③---|
口口口口 |④---|
15
④④口口 |①---|
口口口口 |②---|
口口口③ |③---|
口②①口 |④---|
16
口口口口 |①---|
口①②口 |②---|
口③④口 |③---|
口口口口 |④---|
17
口口④④ |①---|
口口口口 |②---|
③口口口 |③---|
口①②口 |④---|
18
口口口口 |①---|
口②口① |②---|
口④口③ |③---|
口口口口 |④---|
19
口④口口 |①---|
④口口口 |②---|
口口③口 |③---|
口②口① |④---|
20
口口口口 |①---|
口口口口 |②---|
③口④口 |③---|
①口②口 |④---|
21
口口口① |①-②-|
口口②⑥ |③-④-|
⑤③⑤口 |⑤---|
④口口口 |⑥---|
22
口③①口 |(152)①---|
口③①口 |②---|
口口口② |③---|
口口④口 |④---|
23
①口②口 |①-②-|
③口④口 |③-④-|
⑤口口口 |⑤---|
口口口口 |----|
24
口①③口 |①---|
口①③口 |②---|
②口口口 |③---|
口④口口 |④---|
25
口②口① |①-②-|
口④口③ |③-④-|
口口口⑤ |⑤---|
口口口口 |----|
26
①口①口 |(155)①---|
②口②口 |②---|
③口③口 |③---|
口口口口 |----|
27
口①口① |①---|
口②口② |②---|
口③口③ |③---|
口④口④ |④---|
28
①①④④ |(154)①--②|
②②⑤⑤ |--③-|
③③⑥⑥ |④--⑤|
口口口口 |--⑥-|
29
①①②② |①--②|
口③③口 |--③-|
⑤⑥口口 |④---|
口④④口 |⑤-⑥-|
30
口口⑤⑤ |①---|
口④③② |②-③-|
口口①口 |④---|
口口口口 |⑤---|
31
口口口口 |①---|
口②口口 |②-③-|
①①③口 |④---|
口④口口 |----|
32
口①②③ |①--②|
口①②③ |--③-|
口口口口 |--④-|
口④⑤口 |⑤---|
33
③②①口 |①--②|
③②①口 |--③-|
口口⑤④ |----|
口口口口 |④-⑤-|
34
⑤⑤口口 |①---|
②③④口 |②-③-|
口①口口 |④---|
口口口口 |⑤---|
35
口口口口 |①---|
口口②口 |②-③-|
口③①① |④---|
口口④口 |----|
36
口①②③ |①--②|
口①②③ |--③-|
口口口口 |--④-|
口④⑤口 |⑤---|
37
④口口口 |①---|
口③口口 |②---|
口口②口 |③---|
口口口① |④---|
38
口①口① |(157)①---|
口口口口 |②---|
口口口口
口②②口

③④③口
口口⑤口
口口口口 |③---|
口口口口 |④-⑤-|
39
口口③口 |①---|
②④口口 |②-③-|
②口⑤① |④-⑤-|
口⑥口口 |⑥---|
40
②口③① |①---|
④②①口 |②---|
口⑤口③ |③---|
口口口口 |④-⑤-|
41
口③口② |①-②-|
口⑤口④ |③-④-|
口口口口 |⑤---|
口口①口 |----|
42
①口①口 |①---|
口口口口 |②---|
口口口口
口②②口

口③④③
口⑤口口
口口口口 |③---|
口口口口 |④-⑤-|
43
口③口口 |①---|
口口④② |②-③-|
①⑤口② |④-⑤-|
口口⑥口 |⑥---|
44
④④①① |①--②|
②②⑤⑤ |--③-|
⑥⑥③③ |④--⑤|
口口口口 |--⑥-|
45
口口①口 |①---|
③①口③ |②---|
口口②口 |③---|
口②口口 |----|
46
口①口① |①---|
口口口口 |②---|
口口口口
口②②口

③④③口
口口⑤口
口口口口 |③---|
口口口口 |④-⑤-|
47
口口③口 |①---|
②④口口 |②-③-|
②口⑤① |④-⑤-|
口⑥口口 |⑥---|
48
②口③① |①---|
④②①口 |②---|
口⑤口③ |③---|
口口口口 |④-⑤-|
49
口③口② |①-②-|
口⑤口④ |③-④-|
口口口口 |⑤---|
口口①口 |----|
50
①口①口 |①---|
口口口口 |②---|
口口口口
口②②口

口③④③
口⑤口口
口口口口 |③---|
口口口口 |④-⑤-|
51
口③口口 |①---|
口口④② |②-③-|
①⑤口② |④-⑤-|
口口⑥口 |⑥---|
52
④④①① |(152)①--②|
②②⑤⑤ |--③-|
⑥⑥③③ |④--⑤|
口口口口 |--⑥-|
53
口口口口 |①--②|
①①④④ |--③-|
⑤⑤②② |④--⑤|
③③⑥⑥ |--⑥-|
54
①①④④ |①--②|
⑤⑤②② |--③-|
③③⑥⑥ |④--⑤|
口口口口 |--⑥-|
55
④①口④ |①---|
③口①③ |②---|
口②口口 |③---|
口口②口 |④---|
56
口口口口 |①---|
口②②口 |----|
①①①① |----|
口口口口 |--②-|
57
口④③② |①---|
口口口口 |②---|
①①①① |③---|
口口口口 |④---|
58
口口口口 |①---|
②②②② |----|
①①①① |②---|
口口口口 |----|
59
①口口① |①---|
口②②口 |②---|
③口口③ |③---|
口口口口 |----|

accuracy: 99.5%
最終更新:2024年09月08日 18:36