アットウィキロゴ
MONSTER DANCE
KEYTALK

EXTREME

Level: 9.2
BPM: 152-157
Notes: 595

1
口口口口 |(157)----|
口口口口 |----|
口口口口 |----|
口口口口 |----|
2
口口②④ |①--②|
①⑤口① |--③-|
①③口① |④--⑤|
口⑥⑥口 |--⑥-|
3
④③②口 |①---|
①口口① |②---|
①口口① |③---|
口口口口 |④---|
4
口口②④ |①--②|
①⑤口① |--③-|
①③口① |④--⑤|
口⑥⑥口 |--⑥-|
5
口口①④ |①---|
②⑤口① |②---|
④②口口 |③---|
③口口③ |④-⑤-|
6
口口①口 |①---|
②口口口 |②---|
口口口①
口②口口

④口⑤口
口口口口
口③③⑤ |③---|
口口口口 |④-⑤-|
7
口②口② |--①-|
口①④口 |②---|
①口口口 |③---|
口③口③ |④---|
8
口①口口 |①---|
口口口② |②---|
①口口口
口口②口

口口口④
口⑤口口
⑤③③口 |③---|
口口口口 |④-⑤-|
9
口口口口 |--①-|
口口①口 |②-③-|
口②口口
口口③口

④口口④
⑥⑦⑧⑨
口口⑤口 |④-⑤-|
口口口口 |⑥⑦⑧⑨|
10
口①口口 |①---|
口口口口 |②---|
①口口②
口口②口

口⑤口④
口口口口
⑤③③口 |③---|
口口口口 |④-⑤-|
11
②口②口 |--①-|
口④①口 |②---|
口口口① |③---|
③口③口 |④---|
12
④口①口 |①---|
②口口口 |②---|
口③③① |③---|
口②口口 |④---|
13
口⑥①③ |①-②-|
⑤口③① |③-④-|
②口口⑤ |⑤---|
④口⑥口 |⑥---|
14
口口④口 |①②③-|
⑤口口口 |④-⑤-|
③②①口
口口口口

⑧⑧口口
口口口口
口⑨⑨⑦ |⑥-⑦-|
口⑥口口 |⑧-⑨-|
15
口口①⑤ |--①-|
⑤②⑤口 |②-③-|
③口口⑥ |④-⑤-|
⑥④⑥口 |⑥---|
16
口⑤④口 |①-②-|
口①口口 |③-④⑤|
口口②口
口③口口

⑥口口口
⑧⑧口⑦
口口口口 |⑥-⑦-|
口口⑨⑨ |⑧-⑨-|
17
⑥①口② |--①-|
口⑥口⑥ |②-③④|
⑦③④⑤ |⑤-⑥-|
口⑦口⑦ |⑦---|
18
口①②③ |①②③-|
⑥⑧⑧⑤ |④-⑤-|
口④口口 |⑥-⑦-|
⑨⑨口⑦ |⑧-⑨-|
19
④④③⑤ |--①-|
⑤口⑤口 |②-③-|
②口①⑥ |④-⑤-|
⑥口⑥口 |⑥---|
20
口口口口 |①-②-|
④口口③ |③--④|
口口②口
口①口口

口⑦口⑥
口⑤口口
口口⑧口 |⑤-⑥-|
口口口口 |⑦-⑧-|
21
①口①⑥ |①-②-|
②⑦②口 |③-④-|
口③口③ |⑤---|
⑤④⑤④ |⑥-⑦-|
22
⑤⑤②口 |(152)①---|
③口⑥口 |②-③-|
①口⑤① |④---|
口④口④ |⑤-⑥-|
23
口口⑥⑥ |①-②-|
③②口④ |③-④-|
①④口① |⑤---|
⑤口⑤口 |⑥---|
24
⑥⑥口⑤ |①-②-|
④②口口 |③-④-|
①口③① |⑤---|
口⑤⑥④ |⑥---|
25
口口⑥⑥ |①-②-|
②口③④ |③-④-|
①④口① |⑤---|
⑤口⑤口 |⑥---|
26
⑥⑥口⑦ |(155)①-②-|
④③口② |③-④-|
①口④① |⑤---|
口⑤口⑤ |⑥-⑦-|
27
⑦口⑦⑦ |①-②-|
口⑥②④ |③-④-|
①③口① |⑤-⑥-|
④⑤⑤口 |⑦---|
28
口口口口 |(154)①--②|
①④①④ |--③-|
⑤②⑤② |④--⑤|
③⑥③⑥ |--⑥-|
29
⑤②②⑤ |①--②|
④口⑥④ |--③-|
口①口① |④---|
③口③口 |⑤-⑥-|
30
⑤①⑤⑤ |①---|
④②口② |②-③-|
口①③口 |④---|
口④口口 |⑤---|
31
⑤①口口 |①---|
④②口② |②-③-|
口口③口 |④---|
口④①① |⑤---|
32
口①②③ |①--②|
口①②③ |--③-|
④⑤⑤④ |--④-|
①②③口 |⑤---|
33
③②①口 |①--②|
③②①⑥ |--③-|
④⑤⑤④ |--④-|
口③②① |⑤-⑥-|
34
⑤①⑤⑤ |①---|
④②③口 |②-③-|
口口口口 |④---|
口④①② |⑤---|
35
⑤①口口 |①---|
④②口② |②-③-|
口口③口 |④---|
口④①① |⑤---|
36
口①②③ |①--②|
口①②③ |--③-|
④⑤⑤④ |--④-|
①②③口 |⑤---|
37
⑧口口② |①-②-|
口⑥④口 |③-④-|
口口口口 |⑤-⑥-|
⑦⑤③① |⑦-⑧-|
38
口①①① |(157)①---|
口口口口 |②---|
口①口①
口②②口

④④口⑤
③③③③
口口口口 |③---|
口口口口 |④-⑤-|
39
口④口口 |①---|
②口⑤口 |②-③-|
口③①⑥ |④-⑤-|
口口⑥⑥ |⑥---|
40
②口①① |①---|
口②口口 |②---|
口口口口
②①口口

口口④④
③口③口
⑤口口③ |③---|
口口口口 |④-⑤-|
41
口①口口 |①-②-|
口口口② |③-④-|
口口③口
口④口口

口口口口
口⑦⑤⑧
口⑨口⑩ |⑤-⑥-|
⑥口口⑤ |⑦⑧⑨⑩|
42
①①①口 |①---|
口口口口 |②---|
①口①口
口②②口

⑤口④④
③③③③
口口口口 |③---|
口口口口 |④-⑤-|
43
口口口口 |①---|
口口口② |②-③-|
口①③口
口口口口

口④口口
口口⑤口
⑥⑥口口 |④-⑤-|
⑥口口口 |⑥---|
44
④口①① |①--②|
②④③⑤ |--③-|
口⑥口口 |④--⑤|
④口①口 |--⑥-|
45
④②①口 |①---|
③③③③ |②---|
②口⑤① |③---|
口②①口 |④-⑤-|
46
口①①① |①---|
口口口口 |②---|
口①口①
口②②口

④④口⑤
③③③③
口口口口 |③---|
口口口口 |④-⑤-|
47
口④口口 |①---|
②口⑤口 |②-③-|
口③①⑥ |④-⑤-|
口口⑥⑥ |⑥---|
48
②口①① |①---|
口②口口 |②---|
口口口口
②①口口

口口④④
③口③口
⑤口口③ |③---|
口口口口 |④-⑤-|
49
口①口口 |①-②-|
口口口② |③-④-|
口口③口
口④口口

口口口口
口⑦⑤⑧
口⑨口⑩ |⑤-⑥-|
⑥口口⑤ |⑦⑧⑨⑩|
50
①①①口 |①---|
口口口口 |②---|
①口①口
口②②口

⑤口④④
③③③③
口口口口 |③---|
口口口口 |④-⑤-|
51
口口口口 |①---|
口口口② |②-③-|
口①③口
口口口口

口④口口
口口⑤口
⑥⑥口口 |④-⑤-|
⑥口口口 |⑥---|
52
④口①① |(152)①--②|
②④③⑤ |--③-|
口⑥口口 |④--⑤|
④口①口 |--⑥-|
53
④口①① |①--②|
②④③⑤ |--③-|
口⑥口口 |④--⑤|
④口①口 |--⑥-|
54
④口①① |①--②|
②④③⑤ |--③-|
口⑥口口 |④--⑤|
④口①口 |--⑥-|
55
④②①④ |①---|
③③③③ |②---|
②口口① |③---|
口②①口 |④---|
56
口口②④ |①--②|
口⑤口口 |--③-|
①③口① |④--⑤|
①⑥⑥① |--⑥-|
57
④③②口 |①---|
口口口口 |②---|
①口口① |③---|
①口口① |④---|
58
口口②④ |①--②|
口⑤口口 |--③-|
①③口① |④--⑤|
①⑥⑥① |--⑥-|
59
③口①③ |①---|
②③③① |②---|
口②口口 |③---|
口口口口 |----|

accuracy: 99.5%
最終更新:2024年09月08日 18:36