アットウィキロゴ
Phantasmagoria
Maozon

EXTREME

Level: 9.3
BPM: 150
Notes(hold): 773(18)

1
口口口口 |----|
口口口口 |----|
口口口口 |----|
口口口口 |----|
2
口④口口 |①---|
口口③⑤ |--②③|
①②①口 |④--⑤|
口口⑥口 |--⑥-|
3
口口口口 |①---|
①③口口 |--②③|
①口②口 |④--⑤|
口口口口 |--⑥-|

口口④口
⑤口口口
口口口口
口⑥口口
4
口口口口 |①---|
口口③① |--②③|
口②口① |④--⑤|
口口口口 |--⑥-|

口④口口
口口口⑤
口口口口
口口⑥口
5
口④①口 |①--②|
①⑤②④ |--③-|
②⑥③⑤ |④--⑤|
③口口⑥ |--⑥-|
6
口口①① |①---|
口④口⑤ |--②③|
⑥口③口 |④--⑤|
口②口口 |--⑥-|
7
口口口① |①---|
口口口口 |--②③|
口③口① |④--⑤|
口口②口 |--⑥-|

口口口口
⑤口④口
口口口⑥
口口口口
8
①口口口 |①---|
口口③口 |--②③|
①②口口 |④--⑤|
口口口口 |--⑥-|

⑥④口⑤
⑥口口⑤
口口口口
口口口口
9
口③③口 |①②--|
口①口口 |③-④-|
口口②口 |⑤-⑥⑦|
口④④口 |-⑧⑨-|

⑥口口口
口⑦⑤⑧
口⑤⑨⑤
口口口口
10
⑥⑥①① |①-②③|
②⑧③⑦ |④⑤⑥-|
⑪⑫⑬⑭ |⑦⑧⑨⑩|
④⑩⑤⑨ |⑪⑫⑬⑭|
11
⑥⑥①① |①-②③|
②口③口 |④⑤⑥-|
口口口口 |⑦⑧⑨⑩|
④口⑤口 |⑪⑫⑬⑭|

口口口口
⑫⑧⑭⑦
⑬口⑪口
口⑩口⑨
12
⑥⑥①① |①-②③|
⑩④⑨⑤ |④⑤⑥-|
⑧②⑦③ |⑦⑧⑨⑩|
⑭⑬⑫⑪ |⑪⑫⑬⑭|
13
⑥⑥①① |①-②③|
口④口⑤ |④⑤⑥-|
口②口③ |⑦⑧⑨⑩|
口口口口 |⑪⑫⑬⑭|

口口口口
⑩口⑨口
⑧⑫⑦⑬
口⑭口⑪
14
②口①口 |①-②-|
口口口① |③-④-|
③口口口 |⑤⑥⑦-|
口口④口 |⑧-⑨-|

口口⑧口
口⑥⑤⑧
口口⑦口
⑨口口口
15
口①口② |①-②-|
①口口口 |③-④-|
口口口③ |⑤⑥⑦-|
口④口口 |⑧-⑨⑩|

口⑧口口
⑧⑤⑥⑨
口⑦⑩口
口口口口
16
①⑤⑥② |①-②-|
口⑦⑧口 |③-④-|
③⑨⑩④ |⑤⑥⑦⑧|
口⑪⑫口 |⑨⑩⑪⑫|
17
口④口⑤ |①②③---④-|
①⑥⑦① |--⑤-|
②⑦⑥② |⑥--⑦|
③⑧⑧③ |--⑧-|
18
①②口口 |①---|
口口口口 |②---|
口口口口 |③---|
口口口口 |④-⑤-|

⑤口③④
口口口口
⑤口口口
口口口口
19
口口⑤⑤ |①---|
①②③④ |②---|
口口口口 |③---|
口口口口 |④-⑤-|
20
口口口口 |①---|
口口口口 |②---|
①②③④ |③---|
口口口口 |④---|
21
口口口口 |①---|
口口口口 |②---|
口口口口 |③---|
①②口口 |④---|

口口口口
④口口④
口口口口
④口③④
22
①口④② |①---|
③口口口 |②---|
口②④口 |③---|
口口口口 |④---|
23
口②口口 |①---|
口④口④ |②---|
①口口② |③---|
③口口口 |④---|
24
①口④② |①---|
③⑥⑤口 |②---|
口②④口 |③---|
口口口口 |④-⑤⑥|
25
①口口① |①--②|
③口口③ |--③-|
口口口口 |----|
②口口② |----|
26
口⑤口② |①---|
⑦口④⑥ |②-③④|
①③①⑧ |⑤--⑥|
口①⑦口 |--⑦⑧|
27
②口口口 |①---|
口④口口 |②-③④|
口口③口 |⑤--⑥|
口①口口 |--⑦⑧|

口口⑤口
⑥口口⑦
⑧口口口
口⑦口口
28
口口口② |①---|
口口④口 |②-③④|
口③口口 |⑤--⑥|
口口①口 |--⑦⑧|

口⑤口口
口⑧口⑥
⑦口口口
口口⑦口
29
①口口⑤ |①--②|
②⑧④⑥ |--③④|
⑦⑤①③ |⑤--⑥|
③口⑦口 |--⑦⑧|
30
口⑤①② |①---|
⑦口④⑥ |②-③④|
口③口⑧ |⑤--⑥|
口口⑦口 |--⑦⑧|
31
②口口口 |①---|
口④口口 |②-③④|
口口③口 |⑤--⑥|
口①口口 |--⑦⑧|

口口⑤口
⑥口口⑦
⑧口口口
口⑦口口
32
口口口② |①---|
口口④口 |②-③④|
口③口口 |⑤--⑥|
口口①口 |--⑦-|

口⑤口口
⑥口口⑥
口口口口
口⑦⑦口
33
④口口③ |①②--|
口①口口 |③-④-|
④口②③ |⑤-⑥⑦|
口口口口 |-⑧⑨-|

口口⑤口
⑥⑧口⑤
口⑦⑨口
口口口口
34
⑤①⑤① |①-②③|
口口②口 |④-⑤-|
③口口口 |⑥⑦⑧⑨|
口口④口 |⑩⑪⑫⑬|

口⑬口⑫
口⑪口⑩
口⑨口⑧
口⑦口⑥
35
①口①口 |--①-|
③口口口 |②-③-|
②口②口 |④-⑤-|
口口口口 |⑥⑦⑧⑨|

口口口口
口⑤口⑤
口⑧⑨口
⑥口④⑦
36
⑤①⑤① |①-②③|
口口②口 |④-⑤-|
③口口口 |⑥⑦⑧⑨|
口口④口 |⑩⑪⑫⑬|

口⑬口⑫
口⑪口⑩
口⑨口⑧
口⑦口⑥
37
②⑨②口 |①---|
口⑤⑧口 |②-③④|
①⑦④口 |⑤---|
①③⑥口 |⑥⑦⑧⑨|
38
口口口① |①---|
口③<口 |②-③-|
②口口∧ |--④-|
口口口口 |⑤⑥⑦⑧|

口口⑤②
口■口⑥
口口⑦④
口口口⑧
39
②②口口 |①-②-|
口①口口 |③---|
③③口口 |④--⑤|
口口口口 |--⑥-|

口口④口
⑤⑥口⑥
口口口④
口⑤口口
40
口口口口 |①-②③|
口>⑤口 |④-⑤-|
④③②口 |--⑥-|
口口口① |⑦⑧⑨⑩|

⑥⑦口口
⑧口■口
口⑨口口
⑩口口口
41
口口口口 |①---|
口口①口 |----|
口口∨口 |----|
口口①口 |②---|

口口口口
口口口口
口口口口
口口②口
42
⑤口①口 |①-②③|
口②口① |④-⑤-|
口口③口 |⑥⑦⑧-|
口④口口 |⑨-⑩-|

口口口口
口口口⑩
⑨⑥口⑧
口口⑦口
43
口①口⑤ |①-②③|
①口②口 |④-⑤-|
口③口口 |⑥⑦⑧-|
口口④口 |⑨⑩⑪⑫|

⑨口口口
⑩⑥口口
⑪口⑦口
⑫口口⑧
44
口⑩①⑤ |①-②③|
⑥口⑦① |④-⑤-|
⑧②⑨④ |⑥⑦⑧⑨|
口⑪③口 |⑩-⑪-|
45
口口口③ |①--②|
口①口① |--③-|
口②③② |-④-⑤|
口口口口 |--⑥-|

口④口口
口⑥⑥口
④口口口
口⑤⑤口
46
①⑦⑥口 |①-②③|
①⑨⑧② |④-⑤-|
⑤⑪⑩③ |⑥⑦⑧⑨|
口⑬⑫④ |⑩⑪⑫⑬|
47
口⑥⑦① |①-②③|
②⑧⑨① |④-⑤-|
③⑩⑪⑤ |⑥⑦⑧⑨|
④⑫⑬口 |⑩⑪⑫⑬|
48
口口口口 |①---|
①<口口 |----|
口口口口 |②---|
②<口口 |----|
49
口口口口 |①---|
■口口口 |----|
①口口 |②--③|
■口口口 |--④-|

④口②④
②口口口
口②口②
②③③口
50
口口口口 |①---|
口>口① |②-③-|
口口口口 |--④-|
口口口口 |⑤-⑥⑦|

口②口口
口口②②
③口<口
口口口口

口口口⑤
⑥口口口
④⑦口口
口口口口
51
口口∨口 |①---|
口口①口 |②-③④|
口口口口 |⑤--⑥|
口口口口 |⑦-⑧-|

②⑦口口
口⑧②③
口口④⑥
口⑤口口
52
口口口口 |①---|
口口口口 |②-③-|
①口<口 |--④⑤|
口口口口 |⑥⑦--|

口口②口
口>口③
②口口口
口口口口

④口口口
口⑤口④
口口⑥口
口口口⑦
53
口口口口 |①---|
①口<口 |②-③-|
口口口口 |-④-⑤|
口口口口 |--⑥-|

口④②④
②口⑤口
⑥③⑥口
口口⑤口
54
口口口口 |①---|
①口<口 |②-③-|
口口口口 |--④⑤|
口口口口 |⑥⑦--|

口口②口
②口口口
口>口③
口口口口

⑦口口口
口⑥口口
口口⑤④
口④口口
55
口口口口 |①---|
口>口① |②-③④|
口口口口 |⑤--⑥|
口口口口 |⑦-⑧-|

⑧口③口
口④⑥②
⑤②口⑦
口口口口
56
口①口① |①---|
口口口口 |②-③-|
口口口∧ |--④⑤|
口口口口 |⑥⑦--|

口口口②
口口口口
口口口口
②口口口

口口口口
③口③口
口口口口
∧口口口

口口④口
④⑤口口
口口⑥口
口⑦口口
57
④①④① |①--②|
口⑤②口 |--③-|
⑥③⑥③ |④--⑤|
口⑤②口 |--⑥-|
58
口口口① |①-②③|
②口③① |④⑤⑥-|
口⑥口口 |⑦⑧⑨⑩|
④口⑤口 |⑪-⑫⑬|

⑦⑫⑧口
口⑪⑬口
⑨口⑩口
口口口口
59
口口口口 |①-②③|
⑥口口口 |④⑤⑥-|
口口口① |⑦⑧⑨⑩|
②③④⑤ |⑪-⑫⑬|

⑪口口⑫
口口⑬口
⑦⑧⑨⑩
口口口口
60
口①口口 |①-②③|
口③口② |④⑤⑥-|
口口⑥口 |⑦⑧⑨⑩|
口⑤口④ |⑪-⑫⑬|

⑦⑪⑧口
⑨口⑩口
口⑫口口
口口⑬口
61
④口⑥③ |①-②-|
⑦⑤⑦口 |③-④⑤|
②口⑩① |⑥⑦-⑧|
⑧⑨⑧口 |--⑨⑩|
62
②③④⑤ |①-②③|
口口口① |④⑤⑥-|
⑥口口口 |⑦⑧⑨⑩|
口口口口 |⑪-⑫⑬|

口口口口
⑦⑧⑨⑩
口口⑬口
⑪口口⑫
63
口④口② |①-②-|
⑦口⑤⑩ |③-④⑤|
③⑧⑪⑥ |⑥-⑦⑧|
口①⑨口 |⑨-⑩⑪|
64
①口口② |①②③④|
口③④口 |⑤⑥⑦⑧|
⑤口口⑥ |⑨⑩⑪⑫|
口⑦⑧口 |⑬⑭⑮⑯|

⑬口口⑭
⑨⑮⑯⑩
口⑪⑫口
口口口口
65
口口口口 |①---|
口口口口 |----|
①口口① |----|
口口口口 |----|
66
⑥⑥①① |①-②③|
②⑧③⑦ |④⑤⑥-|
⑪⑫⑬⑭ |⑦⑧⑨⑩|
④⑩⑤⑨ |⑪⑫⑬⑭|
67
⑥⑥①① |①-②③|
②口③口 |④⑤⑥-|
口口口口 |⑦⑧⑨⑩|
④口⑤口 |⑪⑫⑬⑭|

口口口口
⑫⑧⑭⑦
⑬口⑪口
口⑩口⑨
68
⑥⑥①① |①-②③|
⑩④⑨⑤ |④⑤⑥-|
⑧②⑦③ |⑦⑧⑨⑩|
⑭⑬⑫⑪ |⑪⑫⑬⑭|
69
⑥⑥①① |①-②③|
口④口⑤ |④⑤⑥-|
口②口③ |⑦⑧⑨⑩|
口口口口 |⑪⑫⑬⑭|

口口口口
⑩口⑨口
⑧⑫⑦⑬
口⑭口⑪
70
⑥⑥①① |①-②③|
⑧②⑦③ |④⑤⑥-|
⑪⑫⑬⑭ |⑦⑧⑨⑩|
④⑩⑤⑨ |⑪⑫⑬⑭|
71
⑥⑥①① |①-②③|
④⑧⑤⑦ |④⑤⑥-|
⑭⑬⑫⑪ |⑦⑧⑨⑩|
②⑩③⑨ |⑪⑫⑬⑭|
72
⑥②①⑤ |①--②|
①④③② |--③-|
口⑤⑥口 |-④--|
口③④口 |⑤--⑥|
73
口①②口 |--①-|
口③③口 |-②--|
②口口① |③--④|
口④④口 |----|
74
口口口口 |----|
口口口口 |----|
口口口口 |----|
口口口口 |----|
75
口口口口 |----|
口口口口 |----|
口口口口 |----|
口口口口 |----|
最終更新:2019年11月11日 13:55