アットウィキロゴ
EMOTiON TRiPPER
sky_delta

BASIC

Level: 3
BPM: 170
Notes: 241

1
口口口口 |----|
口口口口 |----|
口口口口 |----|
口口口口 |----|
2
口口口口 |----|
口口口口 |----|
口口口口 |----|
口口口口 |----|
3
口口口口 |①---|
口②①口 |----|
口口口口 |②---|
口口口口 |----|
4
口口口口 |①---|
口口口口 |----|
口②①口 |②---|
口口口口 |----|
5
口口口口 |①---|
口②①口 |----|
口口口口 |②---|
口口口口 |----|
6
口口口口 |①---|
口口口口 |----|
口②①口 |②---|
口口口口 |----|
7
④口口① |①---|
口口②口 |②---|
口③口口 |③---|
口口口口 |④---|
8
口④③口 |①---|
口①口口 |②---|
口口②口 |③---|
口口口口 |④---|
9
②口口② |①---|
口①①口 |----|
口口口口 |----|
口口口口 |--②-|
10
口口口口 |----|
口口口口 |----|
口①①口 |①---|
口口口口 |----|
11
①口②口 |①---|
口口口口 |----|
口口口口 |②---|
口口口口 |----|
12
口①口口 |①---|
口②口口 |②---|
口③口口 |③---|
口口口口 |----|
13
口②口① |①---|
口口口口 |----|
口口口口 |②---|
口口口口 |----|
14
口口①口 |①---|
口口②口 |②---|
口口③口 |③---|
口口口口 |----|
15
口口口口 |①---|
①②口口 |----|
口口口口 |②---|
口口口口 |----|
16
口口口口 |①---|
口口①② |----|
口口口口 |②---|
口口口口 |----|
17
口①①口 |①---|
口②②口 |②---|
口③③口 |③---|
口④④口 |④---|
18
口口口口 |----|
口口口口 |----|
口口口口 |----|
口口口口 |----|
19
口口口口 |①---|
口口口口 |----|
①口口① |----|
口口口口 |----|
20
口口口口 |①---|
口口口① |②---|
口口②口 |③---|
口③口口 |----|
21
口口口口 |①---|
①口口口 |②---|
口②口口 |③---|
口口③口 |----|
22
口口口口 |①---|
口口口① |②---|
口口②口 |③---|
口③口口 |----|
23
口口口口 |①---|
①①②② |----|
口口口口 |②---|
口口口口 |----|
24
口口口口 |①---|
①口口口 |②---|
口②口口 |③---|
口口③口 |----|
25
口口口口 |①---|
口口口① |②---|
口口②口 |③---|
口③口口 |----|
26
口口口口 |①---|
②②①① |----|
口口口口 |②---|
口口口口 |----|
27
口①①口 |①---|
口口口口 |----|
口②②口 |②---|
口口口口 |----|
28
①口口口 |①---|
口②口口 |②---|
口口③口 |③---|
口口口口 |----|
29
口口口① |①---|
口口②口 |②---|
口③口口 |③---|
口口口口 |----|
30
①口口口 |①---|
口②口口 |②---|
口口③口 |③---|
口口口口 |----|
31
②②①① |①---|
口口口口 |----|
口口口口 |②---|
口口口口 |----|
32
口口口① |①---|
口口②口 |②---|
口③口口 |③---|
口口口口 |----|
33
①口口口 |①---|
口②口口 |②---|
口口③口 |③---|
口口口口 |----|
34
口②①口 |①---|
口④③口 |②---|
口口口口 |③---|
口口口口 |④---|
35
口口口口 |①---|
口口口口 |----|
口①①口 |----|
口口口口 |----|
36
①口口口 |①---|
②口口口 |②---|
③口口口 |③---|
④口口口 |④---|
37
口口口口 |①---|
口口口口 |②---|
口口口口 |③---|
口①②③ |----|
38
口口口① |①---|
口口口② |②---|
口口口③ |③---|
口口口④ |④---|
39
口口口口 |①---|
口口口口 |②---|
口口口口 |③---|
③②①口 |----|
40
口口口口 |①---|
口①①口 |----|
口②②口 |--②-|
口口口口 |----|
41
口口口口 |----|
口口口口 |----|
口②口口 |①---|
口口①口 |②---|
42
口①①口 |①---|
口②②口 |--②-|
口③③口 |----|
口口口口 |③---|
43
口口①口 |----|
口口口口 |----|
口口②口 |①---|
口口口口 |②---|
44
口①口口 |①---|
口口②口 |②---|
口③口口 |③---|
口口口口 |----|
45
口口①口 |①---|
口②口口 |②---|
③口口口 |③---|
口口口口 |----|
46
口口①口 |①---|
口②口口 |②---|
口口③口 |③---|
口口口口 |----|
47
口①口口 |①---|
口口②口 |②---|
口口口③ |③---|
口口口口 |----|
48
口口口口 |①---|
口口口口 |②---|
①②③④ |③---|
口口口口 |④---|
49
口口口口 |①---|
①②③④ |②---|
口口口口 |③---|
口口口口 |④---|
50
口①①口 |①---|
口②②口 |②---|
口③③口 |③---|
口④④口 |④---|
51
口口口口 |----|
口口口口 |----|
口口口口 |----|
口口口口 |----|
52
口口②口 |①---|
口③①① |----|
口口口口 |②---|
口口口口 |③---|
53
口口口口 |①---|
口口口口 |②---|
口④①口 |③---|
口②③口 |④---|
54
口②口口 |①---|
①①③口 |----|
口口口口 |②---|
口口口口 |③---|
55
②口口口 |①---|
口口口口 |----|
口①口口 |②---|
口口口口 |----|
56
口口口① |①---|
②口口口 |----|
口口口口 |②---|
口口口口 |----|
57
口口口口 |①---|
口②②① |----|
口口口口 |②---|
口口口口 |----|
58
口口口口 |①---|
口口口① |②---|
口口②口 |③---|
口③口口 |----|
59
口口口口 |①---|
口①口口 |②---|
口②口口 |③---|
口③口口 |----|
60
口口口口 |①---|
①口口口 |②---|
口②口口 |③---|
口口③口 |----|
61
口口口口 |①---|
口口①口 |②---|
口口②口 |③---|
口口③口 |----|
62
口口口口 |①---|
口口口口 |②---|
④③②① |③---|
口口口口 |④---|
63
口口口口 |①---|
④③②① |②---|
口口口口 |③---|
口口口口 |④---|
64
口①口口 |①---|
口口②口 |②---|
口③口口 |③---|
口口④口 |④---|
65
口口口口 |----|
口口口口 |----|
口口口口 |----|
口口口口 |----|
66
②口口口 |①---|
③口①① |----|
口口口口 |②---|
口口口口 |③---|
67
口口口口 |①---|
口口口口 |②---|
①口口口 |③---|
②③④口 |④---|
68
口口口② |①---|
①①口③ |----|
口口口口 |②---|
口口口口 |③---|
69
口口口口 |①---|
口口口口 |②---|
口口口① |③---|
口④③② |④---|
70
口口口口 |①---|
口①①口 |----|
口②②口 |②---|
口口口口 |----|
71
口口口口 |①---|
口口口口 |----|
口②②口 |②---|
口①①口 |----|
72
口口③① |①---|
口②口口 |----|
口口口口 |②---|
口口口口 |--③-|
73
口口口口 |----|
口口口口 |①---|
口①②口 |②---|
口口口口 |----|
74
①③口口 |①---|
口口②口 |----|
口口口口 |②---|
口口口口 |--③-|
75
口口口口 |----|
口口口口 |①---|
口②①口 |②---|
口口口口 |----|
76
口口③① |①---|
口②口口 |----|
口口口口 |②---|
口口口口 |--③-|
77
口口口口 |----|
口口口口 |①---|
口①②口 |②---|
口口口口 |----|
78
①③口口 |①---|
口口②口 |----|
口口口口 |②---|
口口口口 |--③-|
79
口口口口 |----|
口①①口 |--①-|
口口口口 |----|
口口口口 |----|

accuracy: 100%
最終更新:2022年03月26日 03:20