アットウィキロゴ
EMOTiON TRiPPER
sky_delta

ADVANCED

Level: 6
BPM: 170
Notes: 394

1
口口口口 |----|
口口口口 |----|
口口口口 |----|
口口口口 |----|
2
口①口① |----|
口口口口 |----|
口②口② |①---|
口口口口 |②---|
3
①口④口 |①---|
口②口④ |②---|
口口③口 |③---|
口口口口 |--④-|
4
口口口口 |----|
口①口口 |①---|
口口口口 |②---|
口②口口 |----|
5
口④口① |①---|
④口②口 |②---|
口③口口 |③---|
口口口口 |--④-|
6
口口口口 |----|
口口①口 |①---|
口口口口 |②---|
口口②口 |----|
7
口口②口 |①---|
④①④① |②---|
口③口口 |③---|
口口口口 |④---|
8
口①④口 |①---|
口③口口 |②---|
口口②口 |③---|
口口口口 |④---|
9
①口口① |①---|
②口口② |②---|
④口口④ |--③-|
口③③口 |--④-|
10
①口①口 |----|
口口口口 |----|
②口②口 |①---|
口口口口 |②---|
11
口口④口 |①---|
口口①④ |②---|
口②口口 |③---|
口口③口 |--④-|
12
口口口口 |----|
①口口口 |①---|
口口口口 |②---|
②口口口 |----|
13
口④口口 |①---|
④①口口 |②---|
口口②口 |③---|
口③口口 |--④-|
14
口口口口 |----|
口口口① |①---|
口口③口 |②---|
口口口② |③---|
15
口口②口 |①---|
①④①④ |②---|
口③口口 |③---|
口口口口 |④---|
16
口①口③ |①---|
口口④口 |②---|
口口②口 |③---|
口口口口 |④---|
17
④④②② |①---|
①①③③ |②---|
口口口口 |③---|
口口口口 |④---|
18
口口口口 |----|
口②②口 |--①-|
口口口口 |--②-|
口①①口 |----|
19
口口口口 |----|
口口口口 |----|
①口口① |----|
口口口口 |①---|
20
口口口口 |①---|
口口③② |②-③-|
口①①口
口口口口

④口口口
口口口口
口⑤口口 |--④-|
口口口口 |--⑤-|
21
口口①口 |----|
②口口③ |①--②|
口口口口 |--③-|
口口④口 |--④-|
22
口口口③ |----|
①②口口 |①-②-|
口口④口 |--③-|
口口口口 |--④-|
23
口口⑥口 |--①-|
口⑤③口 |②-③-|
④②口口 |--④-|
①口口口 |⑤-⑥-|
24
③口口口 |----|
口口②① |①-②-|
口④口口 |--③-|
口口口口 |--④-|
25
口口①口 |----|
②口口③ |①--②|
口口口口 |--③-|
口口④口 |--④-|
26
口口④口 |①-②-|
⑤③口⑤ |③-④-|
⑥口②⑥ |--⑤-|
口①口口 |--⑥-|
27
口口口口 |①---|
口口口口 |----|
口①①口 |----|
口口口口 |----|
28
口口口口 |①---|
②③口口 |②-③-|
口①①口
口口口口

口口口④
口口口口
口口⑤口 |--④-|
口口口口 |--⑤-|
29
口①口口 |----|
③口口② |①--②|
口口口口 |--③-|
口④口口 |--④-|
30
③口口口 |----|
口口②① |①-②-|
口④口口 |--③-|
口口口口 |--④-|
31
口⑥口口 |--①-|
口③⑤口 |②-③-|
口口②④ |--④-|
口口口① |⑤-⑥-|
32
口口口③ |----|
①②口口 |①-②-|
口口④口 |--③-|
口口口口 |--④-|
33
口①口口 |----|
③口口② |①--②|
口口口口 |--③-|
口④口口 |--④-|
34
口④⑤口 |①-②-|
口⑥③口 |③-④-|
口②⑦口 |⑤-⑥-|
口⑧①口 |⑦-⑧-|
35
口口口口 |①---|
口口口口 |----|
①口口①
口口口口

口口口口
口口口口
口③⑤④ |②-③-|
口口②口 |④-⑤-|
36
口①口② |①---|
①③②④ |②---|
③口④口 |③---|
口口口口 |④---|
37
①①口口 |①---|
口口③口 |②---|
②②口③ |③---|
口口口口 |----|
38
②口①口 |①---|
④②③① |②---|
口④口③ |③---|
口口口口 |④---|
39
③口③口 |①---|
口②口② |②---|
①口①口 |③---|
口口口口 |----|
40
口口口⑤ |①-②-|
口③⑥① |③-④-|
④⑦②口 |--⑤-|
口口口口 |⑥-⑦-|
41
④④①口 |--①-|
②口⑤⑤ |②-③-|
⑥⑥③口 |④--⑤|
口口口口 |--⑥-|
42
②②①① |①---|
口口口口 |--②-|
口③③口 |----|
口口口口 |③---|
43
口口口口 |----|
②口口① |----|
口口口口 |①-②-|
口④③口 |③-④-|
44
⑤⑤②口 |①---|
口口④口 |②---|
口③口① |③--④|
口口口口 |--⑤-|
45
口口口① |--①-|
口②口口 |②-③-|
口口口③ |④---|
口④口口 |----|
46
口②⑤⑤ |①---|
口④口口 |②---|
①口③口 |③--④|
口口口口 |--⑤-|
47
①口口口 |--①-|
口口②口 |②-③-|
③⑤⑤口 |④---|
口口④口 |⑤---|
48
⑥口⑦口 |①-②-|
口②⑤① |③-④-|
口口口⑤ |⑤---|
口④口③ |⑥-⑦-|
49
口③口④ |①-②-|
③口⑤口 |③---|
①⑥②口 |④-⑤-|
⑦口口口 |⑥-⑦-|
50
③③②② |①---|
①①④④ |②---|
口口口口 |③---|
口口口口 |④---|
51
口口口口 |----|
口②②口 |--①-|
口口口口 |----|
口①①口 |②---|
52
口②口口 |①---|
口口口① |----|
③口口① |②--③|
口口④口 |--④-|
53
口口②② |①---|
口④口④ |②---|
口口①① |③---|
口③口③ |④---|
54
口口②口 |①---|
①口口口 |----|
①口口③ |②--③|
口④口口 |--④-|
55
口口口口 |①---|
口口口口 |----|
②①①② |②---|
口口口口 |----|
56
口①①口 |①---|
口口口口 |----|
口②②口 |②---|
口口口口 |----|
57
口口口口 |①---|
口①①口 |----|
口口口口 |②---|
口②②口 |----|
58
口④②口 |①---|
④口口口 |②---|
口③口① |③---|
口口口口 |--④-|
59
口口口口 |----|
口口①① |①---|
口口口口 |②---|
口口②② |----|
60
口②④口 |①---|
口口口④ |②---|
①口③口 |③---|
口口口口 |--④-|
61
口口口口 |----|
①①口口 |①---|
口口口③ |②---|
②②口口 |③---|
62
口⑥①口 |①-②-|
口②⑦⑤ |③-④-|
口口③口 |⑤---|
口④口口 |⑥-⑦-|
63
口口口口 |①-②-|
③口口口 |③---|
口①口口
口口②口

口口口④
口口⑤口
口⑥口口 |④-⑤-|
⑦口口口 |⑥-⑦-|
64
④④④④ |①---|
②②③③ |②---|
口口口口 |③---|
口①①口 |④---|
65
口口口口 |----|
口②②口 |--①-|
口口口口 |----|
口①①口 |②---|
66
口②口口 |①---|
口口口① |----|
③口口① |②--③|
口口④口 |--④-|
67
口口②② |①---|
口④口④ |②---|
口口①① |③---|
口③口③ |④---|
68
口口口③ |①---|
①④口口 |----|
①口②口 |②--③|
口口口口 |--④-|
69
口口①口 |①---|
口口口① |----|
②口口口 |②---|
口②口口 |----|
70
口①④口 |①--②|
口⑤口② |--③-|
口③⑥口 |--④-|
口口口口 |⑤-⑥-|
71
口口口口 |①---|
口口口口 |----|
口口口口 |②---|
口①口② |----|
72
口②④口 |①---|
口口口口 |②---|
①口③口 |③---|
口口口口 |--④-|
73
①口口口 |----|
口口口口 |①---|
口口②口 |②---|
口口口口 |----|
74
口④②口 |①---|
口口口口 |②---|
口③口① |③---|
口口口口 |--④-|
75
口口口① |----|
口口口口 |①---|
口②口口 |②---|
口口口口 |----|
76
口②④口 |①---|
口口口口 |②---|
①口③口 |③---|
口口口口 |--④-|
77
①口口口 |----|
口口口口 |①---|
口口②口 |②---|
口口口口 |----|
78
口④②口 |①---|
口口口口 |②---|
口③口① |③---|
口口口口 |--④-|
79
口口口口 |----|
口口口口 |--①-|
口口口口 |----|
口①①口 |----|

accuracy: 100%
最終更新:2022年03月26日 03:22