アットウィキロゴ
EMOTiON TRiPPER
sky_delta

EXTREME

Level: 8
BPM: 170
Notes: 650

1
口口口口 |----|
口口口口 |----|
口口口口 |----|
口口口口 |----|
2
口口①口 |----|
口②口③ |----|
口口④口 |①-②-|
口口口口 |③-④-|
3
①口②② |①---|
③口口口 |②---|
①⑤口⑤ |③--④|
口口④口 |--⑤-|
4
④④口口 |--①-|
口②口口 |②-③-|
①口③口 |④---|
口口口口 |----|
5
②②口① |①---|
⑤口⑤③ |②---|
口口口① |③--④|
口④口口 |--⑤-|
6
④④①口 |--①-|
口②口口 |②-③-|
口口③口 |④---|
口口⑤⑤ |⑤---|
7
⑤口④口 |①-②-|
②口⑤⑦ |③-④-|
口⑤口③ |⑤---|
口①⑥口 |⑥-⑦-|
8
口②口③ |①-②-|
⑤③口⑤ |③---|
①口③口 |④---|
口④④口 |⑤---|
9
口③①① |①---|
⑤口口⑤ |②--③|
②②③口 |--④-|
口④④口 |--⑤-|
10
①口④口 |--①-|
口②口⑤ |②-③-|
口⑥③口 |④-⑤-|
口口⑦口 |⑥-⑦-|
11
②②口① |①---|
口口口③ |②---|
⑤口⑤① |③--④|
口④口口 |--⑤-|
12
口口④④ |--①-|
口⑤②口 |②-③-|
口③⑥① |④-⑤⑥|
口⑦口口 |⑦---|
13
①口②② |①---|
③⑤口⑤ |②---|
①口口口 |③--④|
口口④口 |--⑤-|
14
口①④④ |--①-|
⑤口②口 |②-③-|
口③⑥⑥ |④-⑤-|
⑦口口口 |⑥-⑦-|
15
口④口⑤ |①-②-|
⑦⑤口② |③-④-|
③口⑤口 |⑤---|
口⑥①口 |⑥-⑦-|
16
③⑦②④ |①-②-|
口口③口 |③---|
⑥③⑤① |④-⑤-|
口口口口 |⑥-⑦-|
17
④口②④ |①---|
①③①② |②---|
口②口① |③---|
③口③口 |④---|
18
口口②口 |----|
口口口口 |--①-|
口③口口 |--②-|
口①①口 |③---|
19
①口口口 |①---|
⑤⑤口口 |②-③-|
口口口② |--④-|
④④③口 |⑤---|
20
②口④① |①---|
口口①⑤ |②-③-|
③①口④ |--④-|
口口⑤口 |--⑤-|
21
②②口④ |①---|
口①⑤口 |②--③|
口口④口 |--④-|
③③口⑤ |--⑤-|
22
口②④口 |①---|
①口口⑤ |②-③-|
口③口④ |--④-|
口口⑤口 |--⑤-|
23
口⑦④口 |①-②-|
③①口⑥ |③-④-|
口⑤②口 |--⑤-|
口口口口 |⑥-⑦-|
24
口④口② |①---|
⑤口口口 |②-③-|
④口①③ |--④-|
口⑤口口 |--⑤-|
25
④口②② |①---|
口⑤①口 |②--③|
口④口口 |--④-|
⑤口③③ |--⑤-|
26
口口⑤口 |①-②-|
⑤口④③ |③-④-|
口口②① |--⑤-|
口⑥口口 |--⑥-|
27
③口⑤口 |①---|
口④口口 |--②-|
②②①① |--③④|
口口口口 |⑤---|
28
口口口② |①---|
口口口口 |②-③-|
口口口③
口①①口

口④口口
口⑤口口
④口④口 |--④-|
口⑤口口 |--⑤-|
29
口⑤②② |①---|
④口④① |②--③|
口⑤口口 |--④-|
口④③③ |--⑤-|
30
口④口② |①---|
口⑤口① |②-③-|
④口④③ |--④-|
口⑤口口 |--⑤-|
31
口口⑦口 |①-②-|
口⑥④① |③-④-|
⑤③口口 |--⑤-|
②口口口 |⑥-⑦-|
32
②口④口 |①---|
口口⑤① |②-③-|
③④口④ |--④-|
口口⑤口 |--⑤-|
33
②②⑤口 |①---|
①④口④ |②--③|
口口⑤口 |--④-|
③③④口 |--⑤-|
34
⑦①口④ |①-②-|
①⑧④口 |③-④-|
⑤③⑨② |⑤-⑥-|
口口⑥⑩ |⑦⑧⑨⑩|
35
口①①⑤ |①---|
③口口口 |----|
口④口口 |②-③-|
口口②口 |④-⑤-|
36
②①②口 |①---|
口③口口 |②---|
口④口① |③---|
③口口④ |④---|
37
③①③① |①---|
口口④⑤ |②---|
②⑥②口 |③-④-|
口②⑦口 |⑤-⑥⑦|
38
②①②口 |①---|
口口口口 |②---|
口口口①
口口口口

口④口口
口③口口
口口④口 |③---|
③口口口 |④---|
39
口口口口 |①---|
口口②② |②---|
①①口②
口①口口

③口③口
⑦④口口
口⑧⑤口 |③-④⑤|
口⑥口口 |⑥-⑦⑧|
40
口③③② |①-②-|
口④④② |③-④-|
⑤⑥⑦① |--⑤-|
⑤⑥⑦① |⑥-⑦-|
41
②⑥③口 |--①-|
⑥口⑤① |②-③-|
口④口⑤ |④--⑤|
④口口口 |--⑥-|
42
①口④① |①---|
口⑤⑤口 |②-③-|
口⑤⑤口 |--④-|
③②口③ |⑤---|
43
①口③① |--①-|
口口口④ |②---|
口⑤口口 |③-④-|
②口⑥② |⑤-⑥-|
44
口②⑤② |①---|
③口②⑤ |②---|
①口⑤① |③--④|
口④口口 |--⑤-|
45
③口口口 |--①-|
口口②⑦ |②-③-|
①⑤⑥口 |④-⑤⑥|
④口口④ |⑦---|
46
⑤②口口 |①---|
②⑤②③ |②---|
①口口① |③--④|
口口④口 |--⑤-|
47
口④①④ |--①-|
口⑥口⑥ |②-③-|
⑤②口③ |④-⑤-|
⑦口口口 |⑥-⑦-|
48
⑤口④口 |①-②-|
②口⑤⑦ |③-④-|
口⑤口③ |⑤---|
口①⑥口 |⑥-⑦-|
49
④②⑦③ |①-②-|
口③口口 |③---|
①⑤③⑥ |④-⑤-|
口口口口 |⑥-⑦-|
50
口②口口 |①---|
②①口① |②---|
①口②口
口口口口

口口口⑤
口口③⑤
④口口④ |③---|
口③口③ |④-⑤-|
51
②①④口 |--①-|
②①口口 |②-③-|
口⑤口口 |--④-|
口口③口 |⑤---|
52
口①口① |①---|
③④⑤口 |②-③④|
⑥口②口 |⑤--⑥|
口口口⑦ |--⑦-|
53
口②口口 |①---|
②口口① |②---|
口①口口
口口①口

口口口③
口④口⑥
口口⑤③ |③-④⑤|
口⑥口口 |⑥---|
54
①口①口 |①---|
口口⑥口 |②-③④|
⑦②口口 |⑤--⑥|
口⑤④③ |--⑦-|
55
口①口② |①---|
⑥③口① |②-③④|
口⑦④口 |⑤-⑥-|
⑧口口⑤ |⑦-⑧-|
56
口④①① |①--②|
③③⑤口 |--③-|
口⑥②② |--④-|
口口口口 |⑤-⑥-|
57
口口②口 |①---|
口③口② |②---|
④口③口 |③---|
口④①口 |④---|
58
②②口① |①---|
口口口③ |②---|
⑤口⑤① |③--④|
口④口口 |--⑤-|
59
口口④④ |--①-|
口口②口 |②-③-|
口③口① |④---|
口口口口 |----|
60
①口②② |①---|
③⑤口⑤ |②---|
①口口口 |③--④|
口口④口 |--⑤-|
61
口①④④ |--①-|
口口②口 |②-③-|
口③口口 |④---|
⑤⑤口口 |⑤---|
62
口④口⑤ |①-②-|
⑦⑤口② |③-④-|
③口⑤口 |⑤---|
口⑥①口 |⑥-⑦-|
63
③⑦②④ |①-②-|
口口③口 |③---|
⑥③⑤① |④-⑤-|
口口口口 |⑥-⑦-|
64
①口口口 |①---|
口②口口 |②---|
口口口口
口口口口

④④④④
口口口口
口口③口 |③---|
口口口口 |④---|
65
口口②口 |----|
口口口口 |--①-|
口③口口 |--②-|
口①①口 |③---|
66
②②口口 |①---|
①③口① |②-③④|
①口④①
口口口口

口口口⑥
⑦口⑥口
口⑦口口 |⑤--⑥|
口⑤口⑤ |--⑦-|
67
①①①口 |①---|
④口⑥口 |②---|
口⑤口③ |③-④⑤|
口②②② |⑥---|
68
②口口① |①---|
口口口① |②-③④|
①④口口
①口③口

口口⑦口
⑥⑥⑤⑦
口口口口 |⑤--⑥|
口口口口 |--⑦-|
69
①口⑧① |①---|
口⑥③口 |②-③④|
口④口⑦ |⑤-⑥-|
⑤口②口 |⑦-⑧-|
70
口口口⑥ |①--②|
①口⑥口 |--③-|
⑤口②④ |--④-|
③⑤④口 |⑤-⑥-|
71
①②口口 |①---|
口①口③ |②---|
口④口口 |③---|
口口口口 |④---|
72
②②口① |①---|
口口口③ |②---|
⑤口⑤① |③--④|
口④口口 |--⑤-|
73
口口口④ |--①-|
口口②口 |②-③-|
口③口① |④---|
口口⑤口 |⑤---|
74
①口②② |①---|
③⑤口⑤ |②---|
①口口口 |③--④|
口口④口 |--⑤-|
75
口①口④ |--①-|
口口②口 |②-③-|
口③口口 |④---|
口⑤口口 |⑤---|
76
①口②② |①---|
③口口口 |②---|
①⑤口⑤ |③--④|
口口④口 |--⑤-|
77
④口口口 |--①-|
口②口口 |②-③-|
①口③口 |④---|
口⑤口口 |⑤---|
78
②⑤⑤① |①---|
③口口③ |②---|
②口口① |③--④|
口④④口 |--⑤-|
79
①口口① |--①-|
口②②口 |②-③-|
③口口③ |----|
口口口口 |----|

accuracy: 100%
最終更新:2022年03月26日 03:22