アットウィキロゴ
月影小町
駄々子

EXTREME

Level: 9.0
BPM: 182
Notes(hold): 661(71)

1
口口口口 |----|
口口口口 |----|
①口①口 |----|
口口口口 |①---|
2
②①②口 |①---|
口口口口 |----|
口口口口 |----|
口口口口 |②---|
3
口②口② |①---|
口口口口 |----|
口①口口 |----|
口口口口 |②---|
4
口口口口 |①---|
口②①② |②---|
口④③④ |③---|
口口口口 |④---|
5
口口口口 |①---|
口口口口 |----|
口②口② |----|
口口①口 |②---|
6
口②①② |①---|
口口口口 |----|
口口口口 |----|
口口口口 |②---|
7
口口②口 |①---|
②③口口 |----|
口口①③ |②---|
口口口口 |③---|
8
①―<② |①---|
口口口口 |----|
①―<口 |----|
口口口口 |②---|
9
①口口口 |①---|
口②⑤⑤ |②③④-|
①③①口 |⑤---|
口④⑥⑥ |⑥---|
10
口口口① |①---|
口②口口 |②---|
口口③口 |③---|
④④口口 |④---|
11
①④口口 |①---|
口口②④ |②---|
口③口口 |③---|
口口口口 |④---|
12
⑤口②⑤ |①---|
①③口口 |②-③-|
①口④口 |④---|
口口口口 |⑤---|
13
口④口④ |①---|
口口②口 |②---|
口③口口 |③---|
①口口① |④---|
14
④口④口 |①---|
口②口口 |②---|
口口③口 |③---|
口口①口 |④---|
15
④口④口 |①---|
口口②口 |②---|
口③口口 |③---|
口①口口 |④---|
16
口口口口 |①---|
∨口∨口 |----|
①∨①口 |----|
口①口口 |----|
17
口口②口 |①---|
口②口口 |----|
①口①口 |----|
口①口口 |--②-|
18
⑥②口④ |①---|
③口口口 |②-③-|
②口⑤口 |④-⑤-|
口⑤口① |⑥---|
19
口③①口 |①-②-|
③口口② |--③-|
口口口① |④---|
④口④口 |⑤-⑥-|

口口口⑤
口口口口
口⑥―<
口口口口
20
口口①口 |①---|
口口口① |----|
③②④② |②---|
口口②口 |③-④-|
21
③⑤④⑥ |①-②-|
①⑦②口 |③-④-|
口口口⑧ |⑤-⑥-|
口口⑧口 |⑦-⑧-|
22
④口⑤口 |①---|
①口②⑤ |②-③-|
口口③口 |④-⑤-|
⑥口口② |⑥---|
23
口①④③ |①-②-|
②⑤口口 |--③-|
①③⑥口 |④-⑤-|
口⑦口口 |⑥-⑦-|
24
口口口∨ |①---|
口口口| |--②-|
口口口① |③---|
口口口口 |--④-|

∨口口口
|口②口
③口口②
口口口口

口口口口
口④口口
④口口口
口口口口
25
∨口口∨ |①---|
①口口① |--②-|
口口口口 |③-④-|
口口口口 |⑤-⑥-|

口口口口
③口⑥③
口⑤④口
口③②口
26
①口②口 |①---|
口口口口 |----|
②口口口 |②---|
口口口口 |----|
27
④口口口 |①---|
②④③口 |--②-|
④口①口 |③---|
口口口口 |④---|
28
口⑥⑤口 |①-②-|
⑥口口⑤ |③-④-|
口③口① |⑤---|
④口②口 |⑥---|
29
①口口① |①---|
|口口| |----|
∧口口∧ |②---|
口口口口 |③---|

②口口②
口口口口
口口口口
口③口口
30
口口口口 |①---|
口②②② |②---|
口①①| |③---|
口口口∧ |④---|

口口口口
口口口③
口口口口
口口④口
31
口口口口 |①---|
②②②口 |②---|
|①①口 |③---|
∧口口口 |④---|

口④④口
③口口口
口口口口
口口口口
32
口口口口 |①---|
③⑤⑤③ |②-③-|
②④④② |④---|
口①①口 |⑤---|
33
①①< |①---|
口口口口 |----|
口口口口 |②---|
口口口口 |----|

口②②口
口口口口
口口口口
口口口口
34
口②口① |①---|
口口口口 |----|
口口口② |②---|
口口口口 |----|
35
口口口④ |①---|
口③④② |--②-|
口①口④ |③---|
口口口口 |④---|
36
①⑤⑤口 |①---|
口口口② |②-③-|
口口③口 |④---|
口④口口 |⑤---|
37
∨口口口 |①---|
|口口口 |----|
①①口口 |②---|
口口口口 |③---|

口口口口
口口口口
②口口③
口口③口
38
口①口口 |①---|
①口口口 |②---|
口口口口 |③---|
口口口口 |④---|

口口口口
―②口
口口口口
口口口口

④口④口
口口③口
口口口口
口口口口
39
口⑤口② |①---|
口③⑤口 |②-③-|
①口①④ |④---|
口口口口 |⑤---|
40
∨口②口 |①---|
|口口口 |----|
①口口口 |----|
口①―< |②---|
41
口口口② |①---|
口③口口 |--②-|
①口①口 |----|
口①口口 |③---|
42
②②④口 |①---|
口口口④ |②-③-|
口①③① |④---|
口口口口 |⑤-⑥-|

口口口口
口口口口
⑤口口⑥
口⑤⑥口
43
口口口① |①-②-|
⑤⑦②⑤ |③-④-|
⑥③口口 |⑤---|
④口口口 |⑥-⑦-|
44
口②⑥② |①---|
④⑦③⑥ |②-③-|
⑦④①⑤ |④-⑤-|
口口⑤口 |⑥-⑦-|
45
口②口口 |①---|
口口∨口 |②---|
口口①∨ |③---|
口口口① |④-⑤-|

口口口⑤
④口口口
口③③口
口口口③
46
口口④口 |①-②-|
口①口④ |③-④-|
口口口② |⑤---|
口③口口 |⑥-⑦-|

口口口口
口口口口
口⑤<口
⑤――<

⑦口口口
口口口口
口⑥口口
⑥口口口
47
口④口口 |①-②-|
④口①口 |③-④-|
②口口口 |⑤---|
口口③口 |⑥-⑦-|

口口口口
口口口口
口>⑤口
――⑤

⑦口⑦口
口口口口
口口⑥口
口口口⑥
48
口口口⑤ |①---|
口④③② |②-③-|
口①⑥口 |④---|
口口口口 |⑤-⑥-|
49
∨口口口 |①---|
|口口口 |②---|
|口口口 |③---|
①口口口 |④---|

口口口∨
口口②|
口口口|
②口口③

口口口口
口④口口
口口口口
口口口④
50
∨∨∨∨ |①---|
|||| |----|
①①①① |----|
口口口口 |----|
51
②口口口 |①---|
口口口口 |----|
①①①① |----|
口①①口 |--②-|
52
口②①② |①---|
③口④④ |②-③-|
①④②① |④---|
口口⑥⑤ |⑤-⑥-|
53
口⑤②口 |①---|
②①⑥③ |②-③-|
④④④① |④---|
①②口口 |⑤-⑥-|
54
④口②① |①---|
⑤③口口 |②-③-|
口口⑥口 |④---|
口④①口 |⑤-⑥-|
55
口口口⑥ |①---|
④③②③ |②---|
口①口① |③-④-|
⑤③②③ |⑤-⑥-|
56
②①②口 |①---|
④④口③ |②-③-|
①②④① |④---|
⑤⑥口口 |⑤-⑥-|
57
口②口⑤ |①---|
③口①② |②-③-|
①④④④ |④---|
口口②① |--⑤-|
58
口②③口 |①---|
口③②口 |②---|
①口口④ |③---|
口①④口 |④---|
59
口口口口 |①---|
――① |②---|
口口口口 |③-④⑤|
――① |⑥-⑦-|

口口口⑦
口④口③
口②⑤口
口⑥口③
60
②①②口 |①---|
④④口③ |②-③-|
①②④① |④---|
⑤⑥口口 |⑤-⑥-|
61
口②⑤口 |①---|
③⑥①② |②-③-|
①④④④ |④---|
口口②① |⑤-⑥-|
62
①②口④ |①---|
口口③⑤ |②-③-|
口⑥口口 |④---|
口①④口 |⑤-⑥-|
63
⑥口口口 |①---|
③②③④ |②---|
①口①口 |③-④-|
③②③⑤ |⑤-⑥-|
64
口②①② |①---|
③口④④ |②-③-|
①④②① |④---|
口口⑥⑤ |⑤-⑥-|
65
⑤口②口 |①---|
②①口③ |②-③-|
④④④① |④---|
①②口口 |--⑤-|
66
口③②口 |①---|
口②③口 |②---|
④口口① |③---|
口④①口 |④---|
67
口口口口 |①---|
①――< |②---|
口口②口 |③-④-|
①――< |⑤---|

口口③④
③⑤⑤③
口口口口
③口口口
68
口口口口 |①---|
口口口口 |②---|
口∨∨口 |③---|
口①①口 |④---|

口口③口
口口∧∨
口口口③
口②②口

口口④口
口口口口
口口口④
口口口口
69
口①口口 |①---|
∨∧口口 |②---|
①口口口 |③---|
口口口口 |④---|

口②口口
口口口口
②口口口
口口口口

③口口③
|口口|
|口口|
∧口口∧

④口口④
口口口口
口口口口
口口口口
70
口口∨口 |①---|
口①|口 |----|
口|①口 |----|
口∧口口 |--②-|

口口口口
―①口
口①―<
口口口口
71
口口口口 |①---|
口①①口 |----|
口①①口 |----|
口口口口 |--②-|

口口②口
口②口口
口口口口
口口口口
72
⑥②口④ |①---|
③口口口 |②-③-|
②口⑤口 |④-⑤-|
口⑤口① |⑥---|
73
口③①口 |①-②-|
③口口② |--③-|
口口口① |④---|
④口④口 |⑤-⑥-|

口口口⑤
口口口口
口⑥―<
口口口口
74
口口①口 |①---|
口口②① |②---|
④③⑤③ |③---|
口口③口 |④-⑤-|
75
③⑤④⑥ |①-②-|
①⑦②口 |③-④-|
口口口⑧ |⑤-⑥-|
口口⑧口 |⑦-⑧-|
76
④口⑤口 |①---|
①口②⑤ |②-③-|
口口③口 |④-⑤-|
⑥口口② |⑥---|
77
口①④③ |①-②-|
②⑤口口 |--③-|
①③⑥口 |④-⑤-|
口⑦口口 |⑥-⑦-|
78
口口口∨ |①---|
口口口| |--②-|
口口口① |③---|
口口口口 |--④-|

∨口口口
|口②口
③口口②
口口口口

口口口口
口④口口
④口口口
口口口口
79
∨口口∨ |①---|
①口口① |②-③-|
口口口口 |④-⑤-|
口口口口 |⑥---|

口口口口
④口⑥④
口⑤④口
口③②口
80
①―<口 |①---|
口口口口 |----|
口口口口 |②---|
口口口口 |③---|

②③口③
口口口口
口口口口
口口口口
81
口口口口 |①---|
口口口口 |----|
―①口 |②---|
口口口口 |③---|

口③口③
口口口口
口口②口
口口口口
82
口口口口 |①---|
口②①② |②---|
口④③④ |③---|
口口口口 |④---|
83
口口∨口 |①---|
口口|口 |----|
口口|口 |②---|
口口①口 |③---|

口口口口
③口③口
口口口口
口口②口
84
口口口口 |①---|
口∨口口 |----|
口|口口 |②---|
口①口口 |③---|

口③口口
③口口口
口口口口
口②口口
85
口口口② |①---|
③②口口 |----|
口口③① |②---|
口口①口 |③---|
86
①――< |①---|
口口口口 |----|
①――< |----|
口口口口 |②---|

口口口②
口口口口
口口口口
口口口口
87
①口口口 |①---|
口②⑤⑤ |②③④-|
①③①口 |⑤---|
口④⑥⑥ |⑥---|
88
口①口口 |①---|
①|口口 |----|
|∧口口 |②---|
∧口口口 |③---|

口②口口
②口口口
口③③口
口口口口
89
①―<口 |①---|
口①―< |----|
口口口口 |②---|
口口口口 |③---|

②③口③
口②口口
口口口口
口口口口
90
口⑤⑤口 |①---|
②口④口 |②-③-|
口③①口 |④---|
口口口口 |⑤---|
91
∨口口∨ |①---|
|口口| |----|
①口口① |②---|
口口口口 |③---|

口口口口
口口③③
②口口②
口口口口
92
口∨口口 |①---|
∨|口口 |----|
|①口口 |②---|
①口口口 |③---|

口口口口
③③口口
口②口口
②口口口
93
口口∨口 |①---|
口口|∨ |----|
口口①| |②---|
口口口① |③---|

口口口口
口口口③
口口②口
口口口②
94
口①―< |①---|
口口口口 |----|
口①―< |----|
口口口口 |----|
95
口③口口 |①②③-|
口③②① |----|
口③口口 |----|
口口口口 |----|
最終更新:2019年11月08日 01:29