アットウィキロゴ
Analyse Katharsis
red glasses

BASIC

Level: 4
BPM: 142-178
Notes: 282

1
口口口口 |(142)----|
口口口口 |----|
口口口口 |----|
口口口口 |----|
2
口口口口 |①---|
②口口口 |----|
口口口口 |----|
口①①口 |②---|
3
口④③② |①---|
口口口口 |②---|
口①①口 |③---|
口口口口 |④---|
4
口口口口 |①---|
口①①口 |----|
口口②口 |----|
口口口口 |②---|
5
②①①② |①---|
口口口口 |----|
口口口口 |②---|
口口口口 |----|
6
④口口口 |①---|
③口口口 |②---|
②口口口 |③---|
①口口口 |④---|
7
口①口口 |①---|
口②口口 |②---|
口③口口 |③---|
口④口口 |④---|
8
口口④口 |①---|
口口③口 |②---|
口口②口 |③---|
口口①口 |④---|
9
口口口① |①---|
口口口② |②---|
口口口③ |③---|
口口口④ |④---|
10
口③③口 |(178)①---|
口①①口 |----|
口口口口 |②---|
②口口口 |--③-|
11
口口口口 |----|
口口口口 |----|
口口口口 |----|
口口①口 |①---|
12
口口口口 |①---|
口口②口 |②---|
口①口④ |--③-|
③口口口 |--④-|
13
③口口② |--①-|
①口口口 |--②-|
口口口口 |--③-|
口口口口 |----|
14
口口口② |①---|
口③③口 |----|
口口①口 |②---|
口口口口 |--③-|
15
①口口口 |----|
口口口② |----|
口口口口 |--①-|
口口口口 |--②-|
16
口③口口 |----|
口口口口 |①---|
口口口口 |②---|
口①②口 |--③-|
17
口口口口 |--①-|
口口①口 |--②-|
口②口口 |----|
口口口口 |----|
18
口③③② |①---|
口口口口 |----|
口口口口 |②---|
①口口口 |--③-|
19
口口口口 |----|
口①①口 |--①-|
口②②口 |----|
口口口口 |--②-|
20
口口口口 |----|
口口口② |--①-|
口口口口 |----|
口①①口 |--②-|
21
口口口口 |----|
口口②口 |----|
口①口口 |①---|
口口口口 |②---|
22
口①口③ |①---|
口口口口 |----|
口口②口 |②---|
口口口口 |--③-|
23
口口口口 |----|
口口口口 |----|
口口口口 |----|
①口口口 |①---|
24
③口口③ |①---|
口②口口 |----|
口口①口 |②---|
口口口口 |--③-|
25
口口口口 |----|
口口口口 |----|
口口口口 |--①-|
口口①口 |----|
26
口口口口 |①---|
口①口口 |----|
口口口口 |----|
口口口口 |----|
27
口口①口 |----|
口②口口 |①---|
口口③口 |②---|
口口口口 |③---|
28
③口口③ |①---|
口口②口 |----|
口口口口 |②---|
口①口口 |--③-|
29
口口口口 |----|
口口口口 |--①-|
口①①口 |----|
口口口口 |----|
30
①口口② |①---|
③口口④ |②---|
口口口口 |③---|
口口口口 |④---|
31
口口口口 |①---|
口口口口 |②---|
①口口② |③---|
③口口④ |④---|
32
口口口口 |①---|
口④④口 |②---|
口③口口 |③---|
口①②口 |--④-|
33
①口口① |----|
口口口口 |--①-|
口口口口 |----|
口口口口 |----|
34
口口口口 |①---|
口①④口 |②---|
口③②口 |③---|
口口口口 |④---|
35
①口口口 |①---|
口口口② |②---|
③口口口 |③---|
口口口④ |④---|
36
③口口③ |①---|
口②②口 |--②-|
口①①口 |----|
口口口口 |--③-|
37
口口口口 |----|
口口口口 |--①-|
口①①口 |----|
口口口口 |----|
38
口口口口 |①---|
③口口③ |--②-|
口②②口 |----|
①口口① |--③-|
39
口①①口 |----|
口口口口 |--①-|
口口口口 |----|
口口口口 |----|
40
①口口① |①---|
口口口口 |----|
口口口口 |----|
口口口口 |----|
41
口口口口 |①---|
口①②口 |②---|
口③④口 |③---|
口口口口 |④---|
42
口口口口 |①---|
口口口口 |----|
口口②口 |----|
口①口口 |②---|
43
口口口② |①---|
③①口口 |②---|
口口口④ |③---|
口口口口 |④---|
44
口口口口 |①---|
口口口口 |----|
口②口口 |②---|
①口口口 |----|
45
②口口② |①---|
③①口③ |----|
口口口口 |②---|
口口口口 |③---|
46
口口口口 |①---|
口②口口 |--②-|
①口口① |----|
口口口口 |----|
47
口④口口 |①---|
口口③口 |②---|
口②口口 |③---|
口口①口 |④---|
48
①口口① |①---|
口③③口 |--②-|
②口口② |----|
口口口口 |--③-|
49
口口口口 |----|
口口口口 |--①-|
口②②口 |----|
①口口① |--②-|
50
口口口口 |----|
口口口口 |--①-|
口口口口 |----|
口①①口 |----|
51
口口口口 |①---|
口口口口 |②---|
口口③口 |③---|
口口②①

口口口口
口⑤口口
口④口口 |④---|
口口口口 |⑤---|
52
②口口口 |①---|
①口口口 |②---|
口口口口 |----|
口口口口

口口口口
口③④口
口口口口 |③---|
口口口口 |④---|
53
口口口口 |①---|
口口口口 |②---|
口③口口 |③---|
①②口口

口口口口
口口⑤口
口口④口 |④---|
口口口口 |⑤---|
54
口口口② |①---|
口口口① |②---|
口口口口 |----|
口口口口

口口口口
口③④口
口口口口 |③---|
口口口口 |④---|
55
口口口口 |①---|
③口口口 |②---|
②口口口 |③---|
①口口口

④⑤口口
口口口口
口口口口 |④---|
口口口口 |⑤---|
56
口口口口 |①---|
口口口③ |②---|
口口口② |③---|
口口口①

口口⑤④
口口口口
口口口口 |④---|
口口口口 |⑤---|
57
口①口口 |①---|
口③②口 |②---|
口口口口 |③---|
口口口口

口口口口
口口口口
口⑤④口 |④---|
口口口口 |⑤---|
58
口口口口 |①---|
口口口口 |②---|
口口口③ |③---|
②口①口

口口口⑤
④口口口
口口口口 |④---|
口口口口 |⑤---|
59
①口口口 |①---|
口口口口 |----|
口口口口 |----|
口口口口 |----|
60
口口口口 |①---|
口口①口 |----|
口②口口 |②---|
口口口口 |----|
61
口口口口 |①---|
口口口口 |----|
口口口口 |----|
口口①口 |----|
62
口口口口 |①---|
口①口口 |----|
口②口口 |----|
口口口口 |②---|
63
口口口口 |①---|
③口口③ |--②-|
②口口② |----|
①口口① |③---|
64
①口口① |--①-|
口口口口 |----|
口③③口 |②---|
口②②口 |--③-|
65
口②②口 |----|
口①①口 |①---|
口口口口 |--②-|
口口口口 |----|
66
①口口① |①---|
口口口口 |----|
口口口口 |----|
口口口口 |----|
67
口口口口 |----|
①口①口 |①---|
口②口② |②---|
③口③口 |③---|
68
口口口口 |①---|
口①口口 |②---|
口口②口 |----|
口口口口 |----|
69
口口口口 |----|
口口口口 |----|
口口口口 |----|
口口口口 |----|
70
口口口口 |①---|
口口④④ |--②-|
①①③③ |--③-|
口口②② |--④-|
71
口口口口 |----|
口口口口 |--①-|
口口口口 |----|
①口口② |②---|
72
②口口② |①---|
口口口口 |--②-|
口①①口 |----|
③口口③ |--③-|
73
口口口口 |--①-|
②口口② |--②-|
①口口① |----|
口口口口 |----|
74
②口口② |①---|
口口口口 |--②-|
口①①口 |----|
口口口口 |----|
75
口口①口 |①---|
口②口口 |②---|
口口③口 |③---|
口④口口 |④---|
76
口口口口 |①---|
③口口③ |--②-|
口②②口 |----|
①口口① |--③-|
77
口①①口 |----|
口口口口 |--①-|
口口口口 |----|
口口口口 |----|
78
口口口口 |①---|
口③③口 |--②-|
②口口② |----|
口①①口 |--③-|
79
①口口① |----|
口口口口 |--①-|
口口口口 |----|
口口口口 |----|
80
口口口口 |----|
口①①口 |①---|
口①①口 |----|
口口口口 |----|

accuracy: 100%
最終更新:2022年09月21日 03:19