アットウィキロゴ
Analyse Katharsis
red glasses

ADVANCED

Level: 7
BPM: 142-178
Notes: 511

1
口口口口 |(142)----|
口口口口 |----|
口口口口 |----|
口口口口 |----|
2
①口①口 |①---|
口③口口 |----|
口口②口 |----|
口口口口 |②-③-|
3
口口口② |①---|
口口③口 |②---|
口④口口 |③---|
口①口① |④---|
4
①口①口 |①---|
口口口口 |----|
口口口口 |----|
口口②口 |②---|
5
②口②口 |①---|
口①口① |----|
口口口口 |②---|
口口口口 |----|
6
⑧④口口 |①-②-|
口口⑦③ |③-④-|
⑥②口口 |⑤-⑥-|
口口⑤① |⑦-⑧-|
7
口口⑤① |①-②-|
⑥②口口 |③-④-|
口口⑦③ |⑤-⑥-|
⑧④口口 |⑦-⑧-|
8
口⑧口⑦ |①-②-|
口⑥口⑤ |③-④-|
口④口③ |⑤-⑥-|
口②口① |⑦-⑧-|
9
⑧口⑦口 |①-②-|
⑥口⑤口 |③-④-|
④口③口 |⑤-⑥-|
②口①口 |⑦-⑧-|
10
口口⑥② |(178)①---|
口③口口 |②---|
口口④口 |③-④-|
口⑤①① |⑤-⑥-|
11
口口口口 |--①-|
①⑤口口 |②---|
口口口④ |--③-|
口③口② |④-⑤-|
12
⑤⑤口① |①-②-|
口口②口 |③---|
口③口口 |--④-|
口口④④ |--⑤-|
13
口口①① |--①-|
③口口③ |--②-|
口口口口 |--③-|
②②口口 |----|
14
口口⑤③ |①---|
④口口口 |②---|
口①①口 |③-④-|
②口口口 |--⑤-|
15
口口口③ |--①-|
口口口口 |②---|
口①口口 |--③-|
④口②口 |--④-|
16
⑥②⑥口 |--①-|
口口③口 |②-③-|
口④口① |④-⑤-|
口口⑤口 |--⑥-|
17
口口口口 |--①-|
口①口① |--②-|
②口②口 |----|
口口口口 |----|
18
⑤⑧⑧② |①-②-|
口⑥③口 |③-④-|
口④⑦口 |⑤-⑥-|
口口口① |⑦-⑧-|
19
口口口口 |--①-|
③⑤④③ |②-③-|
口口口口 |--④-|
⑥②①⑥ |⑤-⑥-|
20
③口⑥③ |--①-|
口⑤④口 |②-③-|
口②①口 |--④-|
口口口口 |⑤-⑥-|
21
口口口④ |----|
③口口口 |----|
口口口② |①-②-|
①口口口 |③-④-|
22
①①口口 |①---|
⑤口口④ |②-③-|
口口②口 |--④-|
口③口口 |--⑤-|
23
口口口口 |--①-|
口口③口 |②---|
口②①⑤ |--③-|
④口口口 |④-⑤-|
24
①①口口 |①---|
口③口口 |②-③-|
口口②口
口口口口

⑤⑤口④
口口口④
④口口口 |--④-|
④口⑤⑤ |--⑤-|
25
口口口口 |----|
口口口口 |----|
口口①③ |--①-|
口②口口 |②-③-|
26
①口口口 |①-②-|
口口④口 |③-④-|
口③口口 |----|
口口②口 |----|
27
⑦口口① |--①-|
口口②⑥ |②-③-|
⑤③口口 |④-⑤-|
口口口④ |⑥-⑦-|
28
口口口① |①---|
口口③口 |②-③-|
口②口口
口口口口

口口⑦⑦
⑥⑥口口
口口⑤⑤ |④-⑤-|
④④口口 |⑥-⑦-|
29
②②口口 |--①-|
口⑤口口 |--②-|
口口④口 |--③-|
口③口① |④-⑤-|
30
口⑧口① |①-②-|
②口⑦口 |③-④-|
口⑥口③ |⑤-⑥-|
④口⑤口 |⑦-⑧-|
31
口口③口 |--①-|
④口口口 |②-③-|
口口⑤① |--④-|
⑥②口口 |⑤-⑥-|
32
④口口⑤ |①-②-|
口⑥③口 |③-④-|
口②⑦口 |⑤-⑥-|
⑧⑧口① |⑦-⑧-|
33
口口口口 |--①-|
口口口口 |--②-|
①①③③ |--③-|
口口②② |----|
34
①口④④ |①-②-|
口口②口 |③-④-|
口③口口
口口口口

⑦口口口
口口口口
口口口⑥ |--⑤-|
⑤口口口 |⑥-⑦-|
35
口口③口 |--①-|
④②口口 |②-③-|
口口①⑤ |--④-|
⑥口口口 |⑤-⑥-|
36
④⑧口⑤ |①-②-|
⑥口⑦口 |③-④-|
口②③口 |⑤-⑥-|
口口口① |⑦-⑧-|
37
口口⑦口 |①-②-|
口⑥口① |③-④-|
②⑧⑤口 |⑤-⑥-|
口④口③ |⑦-⑧-|
38
①口口口 |--①-|
口口口② |②-③-|
③⑦⑥口 |④-⑤-|
口⑤④口 |⑥-⑦-|
39
③③口口 |--①-|
①④口口 |②-③-|
口口⑤② |--④-|
口⑥口口 |⑤-⑥-|
40
②口①① |①---|
口口口口 |----|
口口口口 |----|
口口口口 |--②-|
41
口①口口 |①--②|
④口口② |--③-|
口口⑥口 |④--⑤|
⑤口口③ |--⑥-|
42
①①口口 |①---|
口口②口 |----|
口③口口 |--②-|
④口口口 |③-④-|
43
③口口口 |----|
②口口口 |①---|
①口口口 |②---|
口口口口 |③---|
44
口口①① |①---|
⑤口口口 |②-③-|
口②口口 |--④-|
④口③口 |--⑤-|
45
口①①口 |----|
口②②口 |----|
口口口口 |①---|
口口口口 |②---|
46
④口口⑥ |①-②-|
口口口③ |③-④-|
②口⑤口 |--⑤-|
口口①口 |--⑥-|
47
口②①口 |--①-|
口④口口 |--②-|
口口③口 |③-④-|
口口口口 |----|
48
口④⑦口 |①-②-|
口口口① |③-④-|
②口⑤口 |--⑤-|
口⑥口③ |⑥-⑦-|
49
③口口⑥ |--①-|
口口口口 |②-③-|
①口口④ |--④-|
⑤口口② |⑤-⑥-|
50
口③口口 |--①-|
口口口口 |②-③-|
口①④口 |--④-|
口⑤②口 |⑤---|
51
口口口① |①-②-|
②口口口 |③-④-|
口⑥口③ |⑤-⑥-|
④口⑤口

口⑧口⑨
口口⑦口
口口口口 |⑦-⑧-|
口口口口 |⑨---|
52
③口口口 |①---|
口口口口 |②---|
口口口口 |③---|
②口口①

口口④口
口⑤口口
口口⑥口 |④-⑤-|
口⑦口口 |⑥-⑦-|
53
③口口口 |①---|
口口口口 |②---|
口口口口 |③---|
②口口①

口⑤口④
口口⑥口
口口口口 |④---|
口口口口 |⑤-⑥-|
54
口口口⑥ |①-②-|
⑤口口口 |③-④-|
口①口④ |⑤-⑥-|
③口②口

⑦口口口
口口口⑧
⑨口口口 |⑦-⑧-|
口口口⑩ |⑨-⑩-|
55
⑤口④口 |①-②-|
口③口口 |③-④-|
口口②口 |⑤---|
口①口口

口口口⑥
口口口口
口⑧口口 |⑥---|
口口⑦口 |⑦-⑧-|
56
⑥②口口 |①-②-|
口口①⑤ |③-④-|
④口口口 |⑤-⑥-|
口口口③

口口口⑦
⑧口口口
口口口⑨ |⑦-⑧-|
⑩口口口 |⑨-⑩-|
57
口口①口 |①-②-|
口②口口 |③-④-|
口⑥③口 |⑤-⑥-|
口④⑤口

口⑧口⑨
⑩口⑦口
口口口口 |⑦-⑧-|
口口口口 |⑨-⑩-|
58
⑥口口口 |①-②-|
口口口⑤ |③-④-|
④口口① |⑤-⑥-|
②口口③

口口⑦口
口⑧口口
口口⑨口 |⑦-⑧-|
口⑩口口 |⑨-⑩-|
59
口口口口 |①---|
口③口② |----|
口口口口 |--②-|
口口口① |--③-|
60
①口口② |----|
口③口口 |①---|
口口④口 |②--③|
口口口口 |--④-|
61
口口①口 |①---|
④口口口 |----|
口口口③ |--②-|
②口口口 |③-④-|
62
口②①口 |----|
口口口口 |----|
口口口口 |--①-|
口口口口 |②---|
63
口口口口 |①-②-|
⑧⑥口③ |③-④-|
②口⑤⑦ |⑤-⑥-|
口④口① |⑦-⑧-|
64
口④口① |①-②-|
口口③⑦ |③-④-|
⑥②口口 |⑤-⑥-|
⑧⑧⑤⑤ |⑦-⑧-|
65
⑥口③③ |①-②-|
口②⑤⑦ |③-④-|
⑧④①口 |⑤-⑥-|
口口口口 |⑦-⑧-|
66
口口口口 |①---|
口口口口 |----|
口口口口 |----|
口口口① |----|
67
口口①① |----|
口②②口 |①---|
③③口口 |②---|
口口口口 |③---|
68
②口口口 |①---|
口口口口 |②-③-|
口口口③ |----|
口口①① |----|
69
口口口口 |----|
口口口口 |----|
口口口口 |----|
口口口口 |----|
70
①①口② |①-②-|
口口⑥⑥ |③-④-|
③口⑤⑤ |--⑤-|
口口④④ |--⑥-|
71
口口口口 |--①-|
口③口口 |②-③-|
⑤口口④ |--④-|
①口⑥② |⑤-⑥-|
72
⑦口④④ |①-②-|
口⑤⑥口 |③-④-|
口③②口 |⑤-⑥-|
①①⑧⑧ |⑦-⑧-|
73
③③口口 |--①-|
②②口口 |--②-|
口口①① |--③-|
口口口口 |----|
74
口⑤①① |①-②-|
口口⑥口 |③-④-|
⑦②③口 |--⑤-|
④④口口 |⑥-⑦-|
75
④口①口 |--①-|
口②口⑤ |②-③-|
⑥口③口 |--④-|
口口口口 |⑤-⑥-|
76
口⑥⑤口 |①-②-|
④④⑦⑦ |③-④-|
口②③口 |--⑤-|
口口①① |⑥-⑦-|
77
口⑤④口 |--①-|
口口⑥口 |②-③-|
口①②口 |--④-|
③③口口 |⑤-⑥-|
78
口口口口 |①-②-|
③⑤⑥② |③-④-|
①①口口 |--⑤-|
⑦⑦④④ |⑥-⑦-|
79
口⑥③③ |--①-|
口④⑤口 |②-③-|
口②①口 |--④-|
口口口口 |⑤-⑥-|
80
口口口口 |----|
①口口① |①---|
①口口① |----|
口口口口 |----|

accuracy: 100%
最終更新:2022年09月21日 03:19