アットウィキロゴ
Analyse Katharsis
red glasses

EXTREME

Level: 9.6
BPM: 142-178
Notes: 740

1
口口口口 |(142)----|
口口口口 |----|
口口口口 |----|
口口口口 |----|
2
口口①① |①---|
口口④口 |----|
口③口口 |----|
②口口口 |②③④-|
3
②③④口 |①---|
口口口口 |②---|
口口口口 |③---|
口①①口 |④---|
4
口口口口 |①---|
口口口口 |----|
口口口口 |----|
②口①① |②---|
5
口口②② |①---|
①①口口 |----|
口口口口 |②---|
口口口口 |----|
6
口口口口 |①②③④|
⑦③④⑧ |⑤⑥⑦⑧|
口①②口
⑤口口⑥

⑬⑪⑫⑭
口口口口
口⑮⑯口 |⑨⑩⑪⑫|
口⑨⑩口 |⑬⑭⑮⑯|
7
口口口口 |①②③④|
⑤③④⑥ |⑤⑥⑦⑧|
口口口口
①⑦⑧②

⑬⑪⑫⑯
口⑮⑭口
⑨口口⑩ |⑨⑩⑪⑫|
口口口口 |⑬⑭⑮⑯|
8
⑬⑭⑮⑯ |①②③④|
⑨⑩⑪⑫ |⑤⑥⑦⑧|
⑤⑥⑦⑧ |⑨⑩⑪⑫|
①②③④ |⑬⑭⑮⑯|
9
⑨⑪⑬⑮ |①②③④|
⑩⑫⑭⑯ |⑤⑥⑦⑧|
⑤⑥⑦⑧ |⑨⑩⑪⑫|
①②③④ |⑬⑭⑮⑯|
10
②⑤③口 |(178)①---|
⑤口口口 |②---|
口口口口 |③-④-|
①①口④ |--⑤-|
11
口口口口 |--①-|
口⑤口① |②---|
口④②口 |--③-|
③口口口 |④-⑤-|
12
口口①① |①-②-|
口口④⑤ |③---|
②口口④ |--④-|
口③⑤口 |--⑤-|
13
口口口③ |--①-|
①②口口 |--②-|
②口口口 |--③-|
口①口口 |----|
14
③口⑤⑤ |①---|
口④口口 |②---|
②口口口 |③-④-|
①①口口 |--⑤-|
15
③口口口 |--①-|
口口口口 |②---|
口口①口 |--③-|
④口②口 |--④-|
16
口②⑥⑥ |--①-|
③④口口 |②-③-|
⑤①口口 |④-⑤-|
口口口口 |--⑥-|
17
口口口口 |--①-|
口口①① |--②-|
口口②② |----|
口口口口 |----|
18
⑧⑧⑤② |①-②-|
口口③⑥ |③-④-|
口口⑦④ |⑤-⑥-|
①①口口 |⑦-⑧-|
19
口口③③ |--①-|
口④⑥⑥ |②-③-|
⑤②口口 |--④-|
口口①口 |⑤-⑥-|
20
③③口口 |--①-|
⑥口口口 |②-③-|
口④①口 |--④-|
⑤口口② |⑤-⑥-|
21
口⑥口口 |----|
口口口⑤ |--①②|
④口口口 |③-④-|
口①②③ |⑤-⑥-|
22
口口①① |①---|
口口口口 |②-③-|
口口口②
口口③口

口口口⑤
口④口口
口口④口 |--④-|
⑤口口口 |--⑤-|
23
①口口口 |--①-|
口口口口 |②---|
口②口口
口口口①

⑧口口口
口⑦⑥④
口口③⑤ |--③④|
口口口口 |⑤⑥⑦⑧|
24
口口①① |①---|
口口口口 |②-③-|
口口口口
②③②③

⑤口口⑤
口口④口
⑤④口⑤ |--④-|
口口口口 |--⑤-|
25
口口口⑥ |----|
①④⑤口 |----|
③②口口 |--①②|
口口口口 |③④⑤⑥|
26
①①口口 |①-②-|
口口口④ |③-④-|
口口③口 |----|
口口口② |----|
27
①②口④ |--①②|
③口⑨口 |③-④-|
⑧口⑤口 |⑤-⑥⑦|
⑥⑦口口 |⑧-⑨-|
28
①①④口 |①---|
⑦⑦口口 |②-③-|
口口⑥② |④-⑤-|
口⑤③口 |⑥-⑦-|
29
口①口① |----|
口口④口 |--①-|
口③口口 |--②-|
②口②口 |③-④-|
30
①口②口 |①-②-|
①口口口 |③-④-|
④口口③
口④口口

⑧口口口
口⑦口口
口口⑥口 |⑤-⑥-|
口口口⑤ |⑦-⑧-|
31
口④③⑤ |--①-|
⑥口⑦① |②-③-|
口⑧口⑨ |--④⑤|
口口②口 |⑥⑦⑧⑨|
32
④⑧⑤口 |①-②-|
口⑥口③ |③-④-|
④口⑦口 |⑤-⑥-|
①①⑧② |⑦-⑧-|
33
口口⑤① |--①-|
③④②口 |②-③-|
口口口③ |--④-|
①⑤口口 |⑤---|
34
⑦②口口 |①-②-|
口口④④ |③-④-|
③⑥口口 |--⑤-|
口⑤①① |⑥-⑦-|
35
口口⑤④ |--①②|
⑥口③口 |③④⑤-|
口口⑦② |--⑥-|
⑧口①口 |⑦-⑧-|
36
④⑧④⑧ |①-②-|
口①⑦① |③-④-|
口⑥口⑤ |⑤-⑥-|
口③②口 |⑦-⑧-|
37
④口④口 |①-②-|
口③口⑤ |③-④-|
口口⑥口 |⑤-⑥-|
①⑦⑧② |⑦-⑧-|
38
⑧④⑧④ |①-②-|
①⑦①口 |③-④-|
口⑤口⑥ |⑤-⑥-|
③口口② |⑦-⑧-|
39
口④口④ |①-②-|
口口③口 |③-④-|
⑧⑤⑥⑩ |⑤-⑥-|
⑦②①⑨ |⑦⑧⑨⑩|
40
口口①口 |①---|
口①口口 |----|
口口口口
口口口口

口口②②
口口口口
口口口口 |----|
口口口口 |--②-|
41
口口口口 |①--②|
②②口口 |--③-|
口口①①
③③口口

口④口口
口口④口
⑥⑤口⑥ |④--⑤|
口口⑤口 |--⑥-|
42
①口口① |①---|
口口②口 |----|
口口③口 |--②-|
口④④口 |③-④-|
43
③口口② |----|
①③②口 |①---|
口①口口 |②---|
口口口口 |③---|
44
⑤①①⑤ |①---|
②口口口 |②-③-|
①④③① |--④-|
口③④口 |--⑤-|
45
口②①口 |----|
口口口口 |----|
口口口口 |①---|
①①②② |②---|
46
口口口④ |①-②-|
口②③口 |③-④-|
①口口口
口口口口

口口口口
口口口口
⑥口口口 |--⑤-|
口口⑤口 |--⑥-|
47
②口①④ |--①-|
口口口口 |--②-|
口口口③ |③-④-|
口口口口 |----|
48
⑦①④口 |①-②-|
①⑦口④ |③-④-|
口⑤②口 |--⑤-|
口⑥③口 |⑥-⑦-|
49
口⑥口③ |--①-|
⑥口③口 |②-③-|
④口口① |--④-|
⑤口口② |⑤-⑥-|
50
口口③口 |--①-|
口口口③ |②-③-|
口④①口 |--④-|
口⑤②口 |⑤---|
51
①口口① |①-②-|
口口口④ |③-④-|
⑤⑥③⑥ |⑤-⑥-|
口口⑤②

⑨口⑨⑧
⑦⑧⑦口
口口口口 |⑦-⑧-|
口口口口 |⑨---|
52
口③口口 |①-②-|
口口⑥① |③-④-|
口⑤②③ |⑤-⑥-|
①口④⑤

⑩口⑧⑦
口⑨口口
⑧口⑨⑩ |⑦-⑧-|
口⑦口口 |⑨-⑩-|
53
口③口⑤ |①-②-|
①口④① |③-④-|
口口口口 |⑤---|
⑤口②③

⑧口⑥口
口⑨口⑦
口口⑧口 |⑥-⑦-|
口⑥口⑨ |⑧-⑨-|
54
口③⑤④ |①-②-|
口口③口 |③-④-|
①⑤⑥② |⑤-⑥-|
口口①口

口口口口
⑦口⑩⑨
⑩口口口 |⑦-⑧-|
口⑨⑧⑦ |⑨-⑩-|
55
⑤口②① |①-②-|
口①口口 |③-④-|
口口④③ |⑤---|
③口口⑤

口⑨口口
口⑧口⑥
⑦口口⑨ |⑥-⑦-|
口⑥⑧口 |⑧-⑨-|
56
③口④② |①-②-|
①口①⑧ |③-④-|
口⑥③口 |⑤⑥⑦⑧|
⑤口⑦口

口⑭口⑯
⑬⑩⑫口
⑨口⑮口 |⑨⑩⑪⑫|
口⑪口口 |⑬⑭⑮⑯|
57
①口口口 |①-②-|
口④⑤⑥ |③-④-|
口⑤口④ |⑤-⑥-|
③⑥③②

⑨⑧⑦⑨
⑩口口口
⑦口⑧口 |⑦-⑧-|
口口口⑩ |⑨-⑩-|
58
口⑤⑥口 |①-②-|
口③④③ |③-④-|
口口⑤① |⑤-⑥-|
①口②口

⑫口口⑭
⑪口口⑬
口⑧口⑩ |⑦⑧⑨⑩|
口⑦口⑨ |⑪⑫⑬⑭|
59
口③口口 |①---|
口①①③ |----|
口口②口 |--②-|
②口口口 |--③-|
60
口口②② |----|
口①③口 |①---|
①口口③ |②--③|
口④④口 |--④-|
61
①①③③ |①---|
①口口口 |----|
④口②口 |--②-|
④④口口 |③-④-|
62
口①口口 |----|
①口口口 |----|
口口口② |--①-|
口口②口 |②---|
63
口⑥③口 |①-②-|
口⑤②⑧ |③-④-|
口④①⑦ |⑤-⑥-|
①⑦口④ |⑦-⑧-|
64
④口口① |①-②-|
③口口口 |③-④-|
②口口口
口口②口

口口⑨口
口⑧⑦口
口⑥⑤口 |⑤⑥⑦⑧|
⑩⑩⑪⑤ |⑨-⑩⑪|
65
⑮⑤⑭④ |①②③-|
③⑨⑧④ |④⑤⑥⑦|
①⑦⑥② |⑧⑨⑩⑪|
⑪⑬⑫⑩ |⑫⑬⑭⑮|
66
口口口口 |①---|
口口口口 |----|
口口口① |----|
口口口口 |----|
67
口口①口 |----|
口口口② |①---|
①②口③ |②---|
口③口口 |③---|
68
口口口② |①---|
口③口口 |②-③-|
口口口口 |----|
①口①口 |----|
69
口口口口 |----|
口口③口 |①---|
口②口口 |②---|
①口口口 |③---|
70
⑧①口① |①-②-|
⑦口口④ |③-④-|
⑧口②③ |⑤-⑥-|
⑥⑤⑥④ |⑦-⑧-|
71
口②③口 |--①-|
口④口⑤ |②-③-|
口⑥①⑦ |--④⑤|
口⑧口⑨ |⑥⑦⑧⑨|
72
①④③④ |①-②-|
口⑥①⑧ |③-④-|
口⑦⑤口 |⑤-⑥-|
②⑧口⑧ |⑦-⑧-|
73
①③①③ |--①-|
口口②口 |②-③-|
①④⑤③ |--④-|
口口口口 |⑤---|
74
②④①⑦ |①-②-|
④⑥口① |③-④-|
①口⑤④ |--⑤-|
③①④口 |⑥-⑦-|
75
⑤④口口 |--①②|
③⑥口口 |③④⑤-|
口②⑦口 |--⑥-|
①口口⑧ |⑦-⑧-|
76
口④①口 |①-②-|
④口②① |③-④-|
①③口④
口①④口

⑤口口⑧
口⑥口⑧
⑧口⑦口 |⑤-⑥-|
⑧口口口 |⑦-⑧-|
77
④④①口 |①-②-|
⑤⑦⑧口 |③-④-|
口③⑥口 |⑤-⑥-|
口②④④ |⑦-⑧-|
78
④④①① |①-②-|
④口口① |③-④-|
口②口③
①口口④

口口口⑧
口⑥⑦⑧
口口⑧口 |⑤-⑥-|
⑧口⑤口 |⑦-⑧-|
79
④口②口 |①-②-|
口口口口 |③-④-|
①④口③
口口④④

口口⑨口
口⑧⑤口
口口⑦口 |--⑤-|
口⑥口口 |⑥⑦⑧⑨|
80
①①口口 |----|
①口口① |①---|
①口口① |----|
口口①① |----|

accuracy: 100%
最終更新:2022年09月21日 03:19