アットウィキロゴ
Sahara
Hommarju

BASIC

Level: 4
BPM: 95-155
Notes: 254

1
口口口口 |(145)----|
口口口口 |----|
口口口口 |----|
口口口口 |----|
2
口口口口 |(95)----|
口口口口 |----|
口口口口 |----|
口口口口 |----|
3
口口口① |①---|
口②口口 |②---|
口口口③ |③---|
口口口口 |----|
4
口口①口 |①---|
②口口口 |②---|
口口③口 |③---|
口口口口 |----|
5
口①口口 |①---|
口口口② |②---|
口③口口 |③---|
口口口口 |----|
6
①口口口 |①---|
口口②口 |②---|
③口口口 |③---|
口口口口 |----|
7
口口口口 |①---|
口口口① |②---|
口②口口 |③---|
口口口③ |----|
8
口口口口 |①---|
口口①口 |②---|
②口口口 |③---|
口口③口 |----|
9
口口口口 |①---|
口①口口 |②---|
口口口② |③---|
口③口口 |----|
10
口口口口 |①---|
①口口口 |②---|
口口②口 |③---|
③口口口 |----|
11
②口口② |(100)①---|
口口口口 |----|
口①①口 |(110)②---|
口口口口 |----|
12
②口口② |(115)①---|
口口口口 |----|
口①①口 |(120)②---|
口口口口 |----|
13
②口口② |(125)①---|
口口口口 |----|
口①①口 |(130)②---|
口口口口 |----|
14
②口口② |(135)①---|
口口口口 |----|
口①①口 |(140)②---|
口口口口 |----|
15
口口口口 |(145)①---|
口②①口 |----|
口口口口 |②---|
口口口口 |----|
16
口口口口 |①---|
口口口口 |----|
口②①口 |②---|
口口口口 |----|
17
口口口口 |①---|
口口口口 |----|
口口口口 |②---|
口②①口 |----|
18
口口口口 |①---|
口口口口 |②---|
④③②① |③---|
口口口口 |④---|
19
口口口口 |①---|
口①①口 |----|
口口口口 |----|
口口口口 |----|
20
口③②口 |①---|
口口口口 |----|
口口口口 |②---|
口①①口 |③---|
21
口口口② |①---|
口口口口 |----|
口①①③ |②---|
口口口口 |③---|
22
②口口口 |①---|
口口口口 |----|
③①①口 |②---|
口口口口 |③---|
23
口口口② |①---|
口口口口 |----|
口①①③ |②---|
口口口口 |③---|
24
②口口口 |①---|
口口口口 |----|
③①①口 |②---|
口口口口 |③---|
25
口口口② |①---|
口口口口 |----|
口①①③ |②---|
口口口口 |③---|
26
②口口口 |①---|
口口口口 |----|
③①①口 |②---|
口口口口 |③---|
27
口口口② |①---|
口口口口 |----|
口①①③ |②---|
口口口口 |③---|
28
口口口口 |①---|
口②②口 |----|
口①①口 |②---|
口口口口 |----|
29
①口口① |①---|
口口②口 |----|
口③口口 |②---|
口口口口 |③---|
30
①口口① |①---|
口②口口 |----|
口口③口 |②---|
口口口口 |③---|
31
①口口① |①---|
口口②口 |----|
口③口口 |②---|
口口口口 |③---|
32
①口口① |①---|
口②口口 |----|
口口③口 |②---|
口口口口 |③---|
33
口口口口 |①---|
口口②口 |----|
①③口① |②---|
口口口口 |③---|
34
口口口口 |①---|
口②口口 |----|
①口③① |②---|
口口口口 |③---|
35
口口口口 |①---|
口口②口 |----|
①③口① |②---|
口口口口 |③---|
36
口口口口 |①---|
口②口口 |----|
①口③① |②---|
口口口口 |③---|
37
口口①口 |①---|
口口口① |----|
口②②口 |②---|
口口口口 |----|
38
口①口口 |①---|
①口口口 |----|
口②②口 |(140)②---|
口口口口 |----|
39
口口①口 |(135)①---|
口口口① |----|
口②②口 |(130)②---|
口口口口 |----|
40
口①口口 |①---|
①口口口 |----|
口②②口 |(125)②---|
口口口口 |----|
41
口口口口 |(120)①---|
口口①口 |----|
口口口① |②---|
口②②口 |----|
42
口口口口 |(125)①---|
口①口口 |----|
①口口口 |(130)②---|
口②②口 |----|
43
口口口口 |(135)①---|
口口①口 |----|
口口口① |(140)②---|
口②②口 |----|
44
口口口口 |(145)①---|
口①口口 |----|
①口口口 |(150)②---|
口②②口 |----|
45
口口口② |(155)①---|
口口③口 |----|
口口①① |②---|
口口口口 |③---|
46
②口口口 |①---|
口③口口 |----|
①①口口 |②---|
口口口口 |③---|
47
口口口② |①---|
口口③口 |----|
口口①① |②---|
口口口口 |③---|
48
②口口口 |①---|
口③口口 |----|
①①口口 |②---|
口口口口 |③---|
49
口口口口 |①---|
口口口口 |----|
②②①① |②---|
口口口口 |----|
50
口口口口 |①---|
②②①① |----|
口口口口 |②---|
口口口口 |----|
51
②②①① |①---|
口口口口 |----|
口口口口 |②---|
口口口口 |----|
52
口口①口 |①---|
口②口口 |②---|
口口③口 |③---|
口④口口 |④---|
53
口口口① |①---|
口口口② |②---|
口口口③ |③---|
口口口④ |④---|
54
口口①口 |①---|
口口②口 |②---|
口口③口 |③---|
口口④口 |④---|
55
①口口口 |①---|
②口口口 |②---|
③口口口 |③---|
④口口口 |④---|
56
口①口口 |①---|
口②口口 |②---|
口③口口 |③---|
口④口口 |④---|
57
口口口① |①---|
口口口② |②---|
口口口③ |③---|
口口口④ |④---|
58
口口①口 |①---|
口口②口 |②---|
口口③口 |③---|
口口④口 |④---|
59
①口口口 |①---|
②口口口 |②---|
③口口口 |③---|
④口口口 |④---|
60
口①口口 |①---|
口②口口 |②---|
口③口口 |③---|
口④口口 |④---|
61
口口口口 |①---|
①②③④ |②---|
口口口口 |③---|
口口口口 |④---|
62
④口口口 |①---|
④口口口 |②---|
口③②① |③---|
口口口口 |④---|
63
口口口口 |①---|
④③②① |②---|
口口口口 |③---|
口口口口 |④---|
64
口口口④ |①---|
口口口④ |②---|
①②③口 |③---|
口口口口 |④---|
65
口口口口 |①---|
①②③④ |②---|
口口口口 |③---|
口口口口 |④---|
66
④口口口 |①---|
④口口口 |②---|
口③②① |③---|
口口口口 |④---|
67
口口口口 |①---|
④③②① |②---|
口口口口 |③---|
口口口口 |④---|
68
口口口口 |①---|
口口口口 |②---|
①②③口 |③---|
口口口口 |----|
69
口口口口 |①---|
①①①① |----|
口口口口 |----|
口口口口 |----|

accuracy: 100%
最終更新:2024年09月08日 18:18