アットウィキロゴ
Sahara
Hommarju

ADVANCED

Level: 7
BPM: 95-155
Notes: 594

1
口口口口 |(145)----|
口口口口 |----|
口口口口 |----|
口口口口 |----|
2
口口口口 |(95)----|
口口口口 |----|
口口口口 |----|
口口口口 |----|
3
④⑤④② |①---|
口③口口 |②-③-|
①口⑥① |④---|
口口口口 |⑤-⑥-|
4
②④⑤④ |①---|
口口③口 |②-③-|
①⑥口① |④---|
口口口口 |⑤-⑥-|
5
④⑤④② |①---|
口③口口 |②-③-|
①口⑥① |④---|
口口口口 |⑤-⑥-|
6
②④口④ |①---|
口⑦③⑤ |②-③-|
①口口① |④---|
口⑧口⑥ |⑤-⑥⑦-⑧|
7
②④⑤④ |①---|
口口③口 |②-③-|
①⑥口① |④---|
口口口口 |⑤-⑥-|
8
④⑤④② |①---|
口③口口 |②-③-|
①口⑥① |④---|
口口口口 |⑤-⑥-|
9
②④⑤④ |①---|
口口③口 |②-③-|
①⑥口① |④---|
口口口口 |⑤-⑥-|
10
④口④② |①---|
⑤③口⑤ |②-③-|
①口口① |④---|
⑥口口⑥ |⑤-⑥-|
11
③口④③ |(100)①---|
口②②④ |②---|
⑤①①口 |(110)③---|
口⑤口口 |④-⑤-|
12
③④口③ |(115)①---|
④②②口 |②---|
口①①⑤ |(120)③---|
口口⑤口 |④-⑤-|
13
③口④③ |(125)①---|
口②②④ |②---|
⑤①①口 |(130)③---|
口⑤口口 |④-⑤-|
14
③④口③ |(135)①---|
④②②口 |②---|
口①①⑤ |(140)③---|
口口⑤口 |④-⑤-|
15
口口口口 |(145)①---|
⑤④④② |②-③-|
③①①⑥ |④---|
口口口口 |⑤-⑥-|
16
⑤口口② |①---|
③④④⑥ |②-③-|
口①①口 |④---|
口口口口 |⑤-⑥-|
17
口②①口 |①-②-|
口④③口 |③-④-|
口⑥⑤口 |⑤-⑥-|
口⑧⑦口 |⑦-⑧-|
18
⑧⑦⑥⑤ |①-②-|
⑫⑪⑩⑨ |③-④-|
④口口③ |⑤⑥⑦⑧|
②口口① |⑨⑩⑪⑫|
19
口口口口 |①---|
口口口口 |----|
口①①口 |----|
口口口口 |----|
20
⑤③⑤① |①-②-|
⑥口⑥口 |③-④-|
⑦口⑦口 |⑤-⑥-|
④口②口 |⑦---|
21
④口口① |①-②-|
⑥②⑤③ |③---|
⑥口口③ |④-⑤-|
口口口口 |⑥---|
22
口口口口 |①-②-|
口①口口 |③---|
口口②口
口③③口

口④口④
口⑤口⑤
口⑥口⑥ |④-⑤-|
口口口口 |⑥---|
23
①口口④ |①-②-|
③⑤②⑥ |③---|
③口口⑥ |④-⑤-|
口口口口 |⑥---|
24
口口口口 |①-②-|
口口①口 |③---|
口②口口
口③③口

④口④口
⑤口⑤口
⑥口⑥口 |④-⑤-|
口口口口 |⑥---|
25
口口口口 |①-②-|
口①④口 |③---|
⑤口口② |④-⑤-|
③③⑥⑥ |⑥---|
26
口口①口 |①-②-|
口②口口 |③---|
口③③口
口口口口

口口口口
口⑥⑤④
口口口口 |④-⑤-|
口⑥⑤④ |⑥---|
27
①口口④ |①-②-|
⑥⑥③③ |③---|
口②⑤口 |④-⑤-|
口口口口 |⑥---|
28
口④④口 |①-②-|
③口①③ |--③-|
口②口口 |--④-|
口⑤⑤口 |⑤---|
29
⑤⑤口② |①-②-|
口口③口 |③-④-|
①④口① |⑤---|
口口⑥⑥ |⑥---|
30
②口⑤⑤ |①-②-|
口③口口 |③-④-|
①口④① |⑤---|
⑥⑥口口 |⑥---|
31
⑤⑤口② |①-②-|
口口③口 |③-④-|
①④口① |⑤---|
口口⑥⑥ |⑥---|
32
②口口⑤ |①-②-|
口③⑥口 |③-④-|
①⑦④① |⑤-⑥-|
口口口口 |⑦---|
33
口⑤③⑤ |①-②-|
口口口口 |③-④-|
口④口② |⑤---|
①⑥⑥① |⑥---|
34
⑤③⑤口 |①-②-|
口口口口 |③-④-|
②口④口 |⑤---|
①⑥⑥① |⑥---|
35
口⑤③⑤ |①-②-|
口口口口 |③-④-|
口④口② |⑤---|
①⑥⑥① |⑥---|
36
口③口⑤ |①-②-|
口⑥⑥口 |③-④-|
②口④口 |⑤-⑥-|
①⑦⑦① |⑦---|
37
口⑤口② |①---|
⑤口③⑤ |②-③-|
①④口① |④---|
口口口口 |⑤---|
38
口口①口 |①-②-|
口②口口 |③-④-|
口口③口
口④口口

口口⑥口
⑥口口⑥
⑤口口⑤ |(140)⑤---|
口口口口 |⑥---|
39
②口⑤口 |(135)①---|
口③口⑤ |②-③-|
口口④口 |(130)④---|
⑤①①口 |⑤---|
40
口①口口 |①-②-|
口口②口 |③-④-|
口③口口
口口④口

口⑥口口
⑥口口口
⑤口口⑤ |(125)⑤---|
口口口⑥ |⑥---|
41
口口③⑤ |(120)①---|
⑤口口口 |②-③-|
口④⑤② |④---|
口①①口 |⑤---|
42
口①口口 |(125)①-②-|
口⑥②⑥ |③-④-|
⑤③口⑤ |(130)⑤---|
⑥口④口 |⑥---|
43
⑤③口口 |(135)①---|
口口口⑤ |②-③-|
②⑤④口 |(140)④---|
口①①口 |⑤---|
44
口口①口 |(145)①-②-|
⑥②⑥口 |③-④-|
⑤口③⑤ |(150)⑤---|
口④口⑥ |⑥---|
45
口口③⑤ |(155)①-②-|
口④⑥② |③-④-|
口①①⑦ |⑤-⑥-|
口口口口 |⑦---|
46
④②口口 |--①-|
①⑤③口 |②-③-|
⑥口口口 |④-⑤-|
口口口口 |⑥---|
47
口口②④ |--①-|
口③⑤① |②-③-|
口口口⑥ |④-⑤-|
口口口口 |⑥---|
48
④②口口 |--①-|
①⑤③口 |②-③-|
⑥口口口 |④-⑤-|
口口口口 |⑥---|
49
口口②④ |--①-|
口③⑤① |②-③-|
口口口⑥ |④-⑤-|
口口⑦口 |⑥-⑦-|
50
④⑥口口 |①-②-|
⑦③⑤口 |③-④-|
②口口口 |⑤-⑥-|
口①口口 |⑦---|
51
①④④① |--①-|
⑤②②⑤ |②-③-|
③⑥⑥③ |④-⑤-|
口口口口 |⑥---|
52
①口口① |①---|
③③③③ |②---|
②口口② |③---|
④④④④ |④---|
53
①②口① |①-②③|
口⑤口④ |④-⑤-|
⑦口③⑥ |⑥-⑦-|
口⑨口⑧ |⑧-⑨-|
54
口②口① |①-②③|
口⑤⑦④ |④-⑤-|
口⑥③⑥ |⑥-⑦-|
⑧⑦口⑧ |⑧---|
55
①口②① |①-②③|
④口⑤口 |④-⑤-|
⑥③口⑦ |⑥-⑦-|
⑧口⑨口 |⑧-⑨-|
56
①口④② |①-②-|
③⑤②④ |③-④-|
⑤口口⑥ |⑤-⑥-|
⑦口⑥⑦ |⑦---|
57
①②口① |①-②③|
口⑤口④ |④-⑤-|
⑦口③⑥ |⑥-⑦-|
口⑨口⑧ |⑧-⑨-|
58
口②口① |①-②③|
口⑤口④ |④-⑤-|
口口③口
口口口口

口口口口
口口口口
口⑥⑦⑥ |⑥-⑦-|
⑧⑦口⑧ |⑧---|
59
①口②① |①-②③|
④口⑤口 |④-⑤-|
⑥③口⑦ |⑥-⑦-|
⑧口⑨口 |⑧-⑨-|
60
口口①口 |①---|
②口口① |②---|
④②口③ |③-④-|
口⑤⑤口 |⑤---|
61
口口①① |①-②-|
口④②② |③-④-|
口口③③
口口口口

口口口口
口口口⑧
⑤口口口 |⑤-⑥-|
⑦口⑥口 |⑦-⑧-|
62
①口⑤② |①-②-|
③口②口 |③-④-|
⑤⑥⑥④ |⑤-⑥-|
⑦口④⑦ |⑦---|
63
①⑥口① |①-②-|
②⑥口③ |③-④-|
口④口⑤ |⑤-⑥-|
⑧⑧口⑦ |⑦-⑧-|
64
⑥口⑥① |①-②-|
②口口③ |③-④-|
口④口⑤ |⑤-⑥-|
⑦口⑦口 |⑦---|
65
口口口口 |----|
①①①① |①---|
②口③口 |②-③-|
④口口⑤ |④-⑤-|
66
①口⑤② |①-②-|
③口②口 |③-④-|
⑤⑥⑥④ |⑤-⑥-|
⑦口④⑦ |⑦---|
67
口④口① |--①-|
口②⑤口 |②-③-|
口⑥口③ |④-⑤-|
口口⑦口 |⑥-⑦-|
68
①口口① |--①-|
②口口② |②-③-|
③口口③ |④---|
④口口④ |----|
69
口口口口 |①---|
口①①口 |----|
口①①口 |----|
口口口口 |----|

accuracy: 100%
最終更新:2024年09月08日 18:19