アットウィキロゴ
Sahara
Hommarju

EXTREME

Level: 10.2
BPM: 95-155
Notes: 904

1
口口口口 |(145)----|
口口口口 |----|
口口口口 |----|
口口口口 |----|
2
口口口口 |(95)----|
口口口口 |----|
口口口口 |----|
口口口口 |----|
3
口口②口 |①---|
③①口口 |②③④-|
口④口口
①口①口

⑥⑤⑧⑤
⑨⑦口口
口⑩⑤口 |⑤-⑥⑦|
口口口口 |⑧⑨⑩-|
4
②口口⑤ |①②③④|
口⑥①④ |⑤⑥⑦-|
③口⑦口
口①口①

⑧⑪⑧⑪
口口口口
⑫⑧⑫⑨ |⑧-⑨⑩|
口口⑩口 |⑪-⑫-|
5
⑥③⑥口 |①-②-|
口②①② |③④⑤-|
口⑥口④
口①⑤①

口⑨口口
口口⑩⑦
口⑫⑧⑪ |⑥-⑦⑧|
口口口口 |⑨⑩⑪⑫|
6
⑤口口口 |①②③④|
口①⑥② |⑤⑥⑦-|
③⑦口口
①口①④

⑬⑧⑪⑧
口⑬口⑪
⑨口⑧口 |⑧-⑨⑩|
⑭⑩⑫口 |⑪-⑫⑬-⑭|
7
口①口① |①---|
口口④口 |②③④-|
口口①③
口②口口

口口口口
口⑤⑩口
口口⑦⑨ |⑤-⑥⑦|
⑤⑧⑤⑥ |⑧⑨⑩-|
8
①口①口 |①②③④|
口⑦口③ |⑤⑥⑦-|
④①⑥口
⑤口口②

口⑩口口
⑨⑫⑧⑫
口口口口 |⑧-⑨⑩|
⑪⑧⑪⑧ |⑪-⑫-|
9
①⑤①口 |①-②-|
④口⑥口 |③④⑤-|
②①②口
口⑥③⑥

口口口口
⑪⑧⑫口
⑦⑩口口 |⑥-⑦⑧|
口口⑨口 |⑨⑩⑪⑫|
10
④①口① |①②③④|
口口⑦③ |⑤⑥⑦-|
②⑥①口
口口口⑤

⑫口⑩⑫
口⑧口⑨
口⑪⑪口 |⑧-⑨⑩|
⑧口⑧口 |⑪-⑫-|
11
口口口⑦ |(100)①-②③|
口②①⑥ |④⑤⑥⑦|
①③④⑤
口①口口

⑧⑨⑨口
口口口口
口口口口 |(110)⑧---|
⑩⑧口⑩ |⑨-⑩-|
12
⑦⑧口口 |(115)①②③④|
⑥①②口 |⑤⑥⑦⑧|
⑤④③口
口口口口

口口⑩⑨
口口口⑩
⑪口口口 |(120)⑨---|
⑪口⑨口 |⑩-⑪-|
13
⑩⑨⑪口 |(125)①②③④|
口③②⑪ |⑤⑥⑦⑧|
⑩④①⑧ |(130)⑨---|
⑨⑤⑥⑦ |⑩-⑪-|
14
口口口口 |(135)①②③④|
口②③口 |⑤⑥⑦⑧|
⑧①④口
⑦⑥⑤口

口⑩⑨口
⑩口口口
口口口⑪ |(140)⑨---|
口口⑪⑨ |⑩-⑪-|
15
①⑨②⑧ |(145)①-②③|
⑫③⑩⑤ |④⑤⑥⑦|
⑥⑪④⑬ |⑧-⑨⑩|
⑭①⑧⑦ |⑪⑫⑬⑭|
16
①⑨②⑧ |①-②③|
⑫③⑩⑤ |④⑤⑥⑦|
⑥⑪④⑬ |⑧-⑨⑩|
⑭①⑧⑦ |⑪⑫⑬⑭|
17
①⑤②⑤ |①-②-|
⑥③⑥② |③-④-|
③⑦④⑦ |⑤-⑥-|
⑧①⑧④ |⑦-⑧-|
18
①口③口 |①②③④|
口⑤口⑦ |⑤⑥⑦⑧|
④口②口
口⑧口⑥

口⑬口⑮
⑨口⑪口
⑯口⑭⑩ |⑨⑩⑪⑫|
⑫口口口 |⑬⑭⑮⑯|
19
①口①口 |①---|
口①口① |----|
口口口口 |----|
口口口口 |----|
20
⑧⑤②⑦ |①-②③|
④⑨⑨① |④-⑤⑥|
⑦③⑥⑧ |⑦-⑧-|
口①④口 |⑨---|
21
口④口口 |①②③-|
①口口④ |④-⑤-|
口②⑤口
口⑤③口

口口⑥口
⑨⑦口⑩
⑧口口口 |⑥⑦⑧-|
⑨口⑩口 |⑨-⑩-|
22
口①口④ |①②③-|
口口②口 |④-⑤-|
⑤口④③
口⑤口口

⑥口⑦口
口⑧⑧口
口口口口 |⑥-⑦-|
⑦口口⑥ |⑧---|
23
口口④口 |①②③-|
④口口① |④-⑤-|
口⑤②口
口③⑤口

口⑥口口
⑩口⑦⑨
口口口⑧ |⑥⑦⑧-|
口⑩口⑨ |⑨-⑩-|
24
④⑦①⑥ |①②③-|
⑧②口⑧ |④-⑤-|
③④口⑤ |⑥-⑦-|
⑥口⑤⑦ |⑧---|
25
①④⑨④ |①②③-|
⑨②⑥⑩ |④-⑤-|
⑤⑦③口 |⑥⑦⑧-|
⑧⑤⑩口 |⑨-⑩-|
26
口④口口 |①②③-|
口①⑤口 |④-⑤-|
④口②⑤
口口口③

⑦口⑥口
口⑧口口
口口⑧口 |⑥-⑦-|
⑥口⑦口 |⑧---|
27
④⑨④① |①②③-|
⑩⑥②⑨ |④-⑤-|
口③⑦⑤ |⑥⑦⑧-|
口⑩⑤⑧ |⑨-⑩-|
28
⑧口④⑧ |①-②③|
口⑤②口 |-④⑤⑥|
①③⑥① |⑦-⑧-|
⑨⑦口⑨ |⑨---|
29
④①口口 |①-②③|
口③①口 |④-⑤-|
②①口⑤
口⑤①口

口口⑧口
口口口⑦
⑨口⑥口 |⑥⑦⑧-|
口口⑨口 |⑨---|
30
口口口④ |①-②③|
口口③口 |④-⑤-|
⑤口口②
①口⑤①

口⑧口口
⑦口口口
口⑥口⑨ |⑥⑦⑧-|
口⑨口口 |⑨---|
31
④口口口 |①-②③|
口③口口 |④-⑤-|
②口口⑤
①⑤口①

口口⑧口
口口口⑦
⑨口⑥口 |⑥⑦⑧-|
口口⑨口 |⑨---|
32
口④④口 |①-②③|
口口②口 |-④-⑤|
⑤③口⑤
①口口①

⑦口口⑦
口⑥口口
口口⑥口 |⑥-⑦-|
⑧口口⑧ |⑧---|
33
口①②口 |①-②③|
⑤口①③ |④-⑤-|
口①④口
口⑤①口

⑥口口口
口⑦⑨口
⑧口口口 |⑥⑦⑧-|
口口口⑨ |⑨---|
34
口②口⑥ |①-②③|
③⑨⑦⑤ |④-⑤-|
口④①⑧ |⑥⑦⑧-|
⑨①⑤口 |⑨---|
35
⑥口②口 |①-②③|
⑤⑦⑨③ |④-⑤-|
⑧①④口 |⑥⑦⑧-|
口⑤①⑨ |⑨---|
36
⑦④④⑦ |①-②③|
⑥③口⑥ |-④-⑤|
⑤口②⑤ |⑥-⑦-|
⑧①①⑧ |⑧---|
37
口①②口 |①---|
口③①② |②-③-|
口①③口
口口①口

口⑥口口
口口⑥口
④⑤口口 |④---|
口④⑤口 |⑤-⑥-|
38
①口口⑧ |①②③④|
②口口⑦ |⑤⑥⑦⑧|
③口口⑥
④口口⑤

⑩⑨⑩口
口口口口
口口口口 |(140)⑨---|
口⑪⑨⑪ |⑩-⑪-|
39
口④口② |(135)①-②③|
口①⑤口 |④⑤⑥⑦|
口⑥①口
③口⑦口

口口⑩口
口⑩口口
⑧口⑨⑧ |(130)⑧---|
口⑨口口 |⑨-⑩-|
40
⑧口口① |①②③④|
⑦口口② |⑤⑥⑦⑧|
⑥口口③
⑤口口④

口⑩⑨⑩
口口口口
口口口口 |(125)⑨---|
⑪⑨⑪口 |⑩-⑪-|
41
②口④口 |(120)①-②③|
口⑤①口 |④⑤⑥⑦|
口①⑥口
口⑦口③

口⑩口口
口口⑩口
⑧⑨口⑧ |⑧---|
口口⑨口 |⑨-⑩-|
42
①口口⑧ |(125)①②③④|
②口口⑦ |⑤⑥⑦⑧|
③口口⑥
④口口⑤

口⑨口口
口口口口
⑩口口⑪ |(130)⑨---|
⑩口⑨⑪ |⑩-⑪-|
43
口⑧①口 |(135)①②③④|
口⑦②口 |⑤⑥⑦⑧|
口⑥③口
口⑤④口

口口口⑨
口口口口
口口⑩口 |(140)⑨---|
⑨⑪口口 |⑩-⑪-|
44
①⑨口⑧ |(145)①②③④|
②⑩⑩⑦ |⑤⑥⑦⑧|
③⑩⑩⑥ |(150)⑨---|
④口⑨⑤ |⑩---|
45
①口①② |(155)①-②-|
⑤口⑤口 |③-④-|
③口⑦④ |⑤-⑥-|
⑦口③⑥ |⑦---|
46
②①口① |①-②-|
口⑤口⑤ |③-④-|
④⑦口③ |⑤-⑥-|
⑥③口⑦ |⑦---|
47
①口①② |①-②-|
⑤口⑤口 |③-④-|
③口⑦④ |⑤-⑥-|
⑦口③⑥ |⑦---|
48
②①口① |①-②-|
口⑤口⑤ |③-④-|
④⑦口③ |⑤-⑥-|
⑥③口⑦ |⑦---|
49
①口①② |①-②-|
⑤口⑤⑥ |③-④-|
③口③④ |⑤-⑥-|
⑦口⑦⑧ |⑦-⑧-|
50
②①⑤① |①-②-|
⑨⑥口⑨ |③-④-|
④③⑦③ |⑤⑥⑦⑧|
口⑧口口 |⑨---|
51
④口⑦口 |①②③④|
口口②⑧ |⑤⑥⑦⑧|
⑥口口口
①口③⑤

口⑪口⑩
口⑭⑮口
口⑫⑨⑬ |⑨⑩⑪⑫|
口⑯口口 |⑬⑭⑮⑯|
52
①口②② |①---|
①口口② |②---|
①口②口
①口②②

⑤口口口
口口④口
⑥③口③ |③---④-|
口口口口 |⑤---⑥-|
53
口②口① |①--②③④|
⑦③⑧⑥ |⑤-⑥-|
⑨④口⑩ |⑦-⑧-|
①⑤⑦⑨ |⑨-⑩-|
54
⑨⑤⑤① |①-②③|
⑩口⑧② |④-⑤-|
⑦口③口 |⑥⑦⑧⑨|
①④⑥⑩ |⑩---|
55
口②口① |①--②③④|
口③口⑥ |⑤-⑥-|
口④口口
①⑤口口

口⑩口口
⑦口⑧口
⑨口口口 |⑦-⑧-|
口口⑦⑨ |⑨-⑩-|
56
口口②④ |①-②-|
⑦⑤⑥⑧ |③-④-|
⑥口④② |⑤-⑥-|
①③⑤⑦ |⑦-⑧-|
57
①⑤口口 |①--②③④|
口④口口 |⑤-⑥-|
口③⑥①
口②口口

口口⑦⑨
口口口口
⑦⑩口口 |⑦-⑧-|
⑨口⑧口 |⑨-⑩-|
58
①④⑥⑩ |①-②③|
⑦口③口 |④-⑤-|
⑩口⑧② |⑥⑦⑧⑨|
⑨⑤⑤口 |⑩---|
59
①⑤⑦⑨ |①--②③④|
⑩④口口 |⑤-⑥-|
⑦③⑥口 |⑦-⑧-|
口②⑧① |⑨-⑩-|
60
口⑤⑤口 |①②③④|
口④口① |⑤-⑥-|
口⑥⑥口
口②口③

⑧口口⑦
⑨口口⑨
⑧口口⑦ |⑦-⑧-|
口口口口 |⑨---|
61
口④①口 |①-②-|
口②口口 |③-④-|
口口③口
口①②③

口口口口
⑥口⑤口
⑧口口⑦ |⑤-⑥-|
⑤⑦口口 |⑦-⑧-|
62
①②⑧口 |①-②-|
⑦口⑨③ |③-④-|
口④⑥口 |⑤⑥⑦⑧|
⑤⑨①③ |⑨---|
63
④口口口 |①-②-|
口③口① |③-④-|
②口口口
口口①③

口⑥口口
口口⑤口
⑧口口⑦ |⑤-⑥-|
⑤⑦口口 |⑦-⑧-|
64
口口口② |①-②-|
口①③口 |③-④-|
口④口口
口口①③

⑥口⑤口
口口口口
口口⑥口 |⑤-⑥-|
⑤⑦⑦口 |⑦---|
65
口口口③ |①---|
①②②① |②-③-|
①口口①
②口口②

④⑥口口
口口口口
⑦④口⑥ |④-⑤-|
口口⑤口 |⑥-⑦-|
66
口口①③ |①-②-|
①口口④ |③-④-|
口口②口
口③口口

⑤⑨⑧口
口口⑥口
⑦⑩口⑨ |⑤⑥⑦⑧|
口口⑧口 |⑨-⑩-|
67
口口口口 |①-②-|
①③④② |③-④-|
⑤⑦⑧⑥ |⑤-⑥-|
口口口口 |⑦-⑧-|
68
⑦⑨⑧⑦ |①②③④|
③⑤⑤① |⑤-⑥-|
⑨口口⑧ |⑦-⑧-|
⑥②④⑥ |⑨---|
69
口口口口 |①---|
①①①① |----|
口口口口 |----|
口①①口 |----|

accuracy: 100%
最終更新:2024年09月08日 18:19