アットウィキロゴ
星の小舟
BEMANI Sound Team "猫叉劇団"

EXTREME

Level: 9.7
BPM: 173
Notes(hold): 624(71)

1
口口口口 |----|
口口口口 |----|
口口口口 |----|
口口口口
2
口口口口 |①---|
口口口③ |②---|
口口②口 |③---|
口口口①
3
口①口口 |①---|
①∧②口 |②---|
∧口口口 |③---|
口口口口

口③口口
③口口口
口口口口
口口③口
4
①口口口 |①---|
口②口口 |②---|
③口口口 |③---|
口口口口
5
口口①口 |①---|
②口∧① |②---|
口口口∧ |③---|
口口口口

口口③口
口口口③
口口口口
③口口口
6
口口口① |①---|
口口②口 |②---|
口③口口 |③---|
口口口口
7
口口口口 |①---|
∨②口口 |②---|
①口①口 |③---|
口口∧口

口口口口
口口口③
③口③口
口口口口
8
①口②口 |①---|
口③口口 |②-③-|
口口④口 |④-⑤-|
口⑤口口
9
口②∨口 |①---|
口口①∨ |②---|
口口口① |③---|
口口口口

口口口口
口口③口
③口口③
口口口口
10
口口口口 |①---|
③口口口 |②---|
口②口口 |③---|
①口①口
11
①口①口 |①---|
口②∧① |②---|
口口口∧ |③---|
口口口口

口口③口
口口口③
口口口口
口③口口
12
口①口① |①---|
口口②口 |②---|
口口口③ |③---|
口口口口
13
口①口口 |①---|
①∧口② |②---|
∧口口口 |③---|
口口①口

口③口口
③口口口
口口口口
口口口③
14
①口①口 |①---|
口②口口 |②---|
口口③口 |③---|
口口口口
15
口口口口 |①---|
口口②∨ |②---|
口①口① |③---|
口∧口口

口口口口
③口口口
口③口③
口口口口
16
口①口① |①---|
口③口口 |②---|
②口口口 |③---|
口口口口
17
口口口口 |①---|
口口口③ |②---|
口口②口 |③---|
口①口①
18
①口①口 |①---|
口口③口 |②---|
口口口② |③---|
口口口口
19
口口②口 |①---|
口③口口 |②-③-|
口口④口 |④-⑤-|
①⑤①口
20
∨口口∨ |①---|
|口口| |----|
①口口① |②---|
口口口口

口口口口
口口口口
②口口②
口口口口
21
口③口② |①---|
口⑤口④ |②-③-|
口①①口 |④-⑤-|
口口口口
22
口口口口 |①-②-|
①⑥口口 |③-④-|
口②⑤口 |⑤-⑥-|
口口③④
23
口③②① |①②③-|
口口⑤⑤ |④---|
④④口口 |⑤---|
口口口口
24
口口口口 |①---|
①口口口 |②-③-|
⑤④③② |④-⑤-|
①口口口
25
②口③口 |①---|
④口⑤口 |②-③-|
口口口口 |④-⑤-|
口①①口
26
口口口口 |①-②-|
口口⑥① |③-④-|
口⑤②口 |⑤-⑥-|
④③口口
27
①口口② |①---|
①口口③ |②-③-|
口口⑤④ |④-⑤-|
口口口口
28
口口口口 |①②③-|
口①口口 |----|
口②口口 |④---|
口③④④
29
①口⑥口 |①②③-|
②口口口 |④---|
③口④⑤ |⑤-⑥-|
口口口口
30
口口口口 |①---|
②口③口 |②-③-|
④①⑤口 |④-⑤-|
口口口口
31
②①口① |①---|
③口口口 |②-③-|
④⑤口口 |④-⑤-|
口口口口
32
口口口④ |①②③-|
口⑤①口 |----|
口口②口 |④-⑤-|
口口③口
33
口口口口 |①---|
③口口口 |--②-|
口口口① |③---|
②口口口
34
口口①口 |①---|
口②口① |②---|
③口②口 |③---|
口③口口
35
①口口口 |①-②-|
口口②口 |③-④-|
口口口口 |⑤---|
口口口口

口④<口
④<口⑤
口③口口
口口口口
36
口④口口 |①---|
④口③口 |②-③-|
口⑥⑤② |④-⑤⑥|
口口④①
37
∨口②口 |①---|
|口口口 |②---|
|口口③ |③---|
①口口口
38
口①口口 |①---|
口口③② |②-③-④-|
口⑤④口 |⑤---|
②口口口
39
①⑤②口 |①-②-|
③∧④口 |③-④-|
⑤<口口 |⑤---|
口口口口
40
口③口③ |①---|
口⑤④口 |②---|
③口口口 |③-④⑤|
口②口①
41
口口②口 |①---|
①口口口 |②---|
|口口③ |③---|
∧口口口
42
口②口① |①---|
①③④口 |②-③-④-|
口口⑤口 |⑤---|
口口口口
43
①口①口 |①---|
|口|口 |----|
∧口∧口 |②---|
口口口口

②②②②
口口口口
口口口口
口口口口
44
口口口口 |①---|
③口口口 |----|
口口口口 |②-③-|
②①①口
45
口口口口 |①---|
口口口① |②-③-④-|
口口口∧ |⑤---|
口口口口

口②口口
口③④②
口口⑤口
口口口口
46
口③①① |①---|
口口口口 |②---|
②口口口 |③---|
口②③口
47
口口口口 |①---|
①口口口 |②-③-④-|
|口口口 |⑤---|
∧口口口

口口②口
②④③口
口⑤口口
口口口口
48
①①口口 |①---|
口口口口 |②---|
③口口② |③---|
口③②口
49
③口④① |①-②-|
口②口口 |③---|
――③ |④---|
口口口口
50
口②口口 |①---|
口口③口 |②-③-|
①④口口 |④-⑤-|
口口⑤口
51
口口口② |①---|
①①口② |②---|
口口口① |③---|
③口口③
52
口①①口 |①---|
口口口口 |----|
②口②口 |②---|
口①①口
53
口口口① |①---|
口口口| |②-③④|
口口口∧ |⑤-⑥-|
口口口口

口③口③
⑥④口口
口⑤口口
②口口口
54
口口①口 |①---|
口口③② |②-③-④-|
口⑤④① |⑤---|
口口口口
55
①①口② |①---|
||口口 |②---|
∧∧口口 |③---|
口口口口

③③口口
口口口口
口③口口
口口口口
56
口口口口 |①---|
口口∨∨ |②---|
口口|| |③---|
②口①①

口口口口
口口口③
口口口口
口口③③
57
①口口口 |①---|
|口口口 |②-③④|
∧口口口 |⑤-⑥-|
口口口口

③口③口
口口④⑥
口口⑤②
口口口口
58
口①⑥口 |①---|
②③口口 |②-③-④-|
①④⑤口 |⑤-⑥-|
口口口口
59
①口口④ |①-②-|
∨口②口 |③---|
③口口口 |④---|
口口口口
60
口口口口 |①---|
口口口③ |②---|
③口口① |③---|
口口②口
61
①口口口 |①---|
|口口口 |②-③-④-|
∧口口口 |⑤-⑥-|
口口口口

④口③②
口⑤④口
口口口口
口⑥口口
62
口①口口 |①---|
口口口口 |②-③-④-|
①⑤④口 |⑤---|
口口③②
63
②口①① |①---|
口口|| |②---|
口口∧∧ |③---|
口口口口

口口③③
口口口口
口口③口
口口口口
64
口口口口 |①---|
∨∨口口 |②---|
||口口 |③---|
①①口②

口口口口
③口口口
口口口口
③③口口
65
――① |①---|
口②口口 |②---|
口①口口 |③---|
口口③口
66
口口口口 |①---|
口②口口 |②---|
――① |③---|
③口口口
67
②②口口 |①---|
―①口 |②---|
③③口口 |③---|
口口口口
68
口口口① |①---|
①口①口 |②---|
口口②① |③-④-|
③口④口
69
①口口口 |①---|
|口口口 |②-③④|
∧口口口 |⑤-⑥-|
口口口口

③口③口
口口④⑥
口口⑤口
口口口②
70
口①口口 |①---|
②③口口 |②-③-④-|
①④⑤口 |⑤---|
口口口口
71
②口①① |①---|
口口|| |②---|
口口∧∧ |③---|
口口口口

口口③③
口口口口
口口③口
口口口口
72
口口口口 |①---|
∨∨口口 |②---|
||口口 |③---|
①①口②

口口口口
③口口口
口口口口
③③口口
73
口口口① |①---|
口口口| |②-③④|
口口口∧ |⑤-⑥-|
口口口口

口③口③
⑥④口口
②⑤口口
口口口口
74
口⑥①口 |①---|
口口③② |②-③-④-|
口⑤④① |⑤-⑥-|
口口口口
75
④口口① |①-②-|
口②口∨ |③---|
口口口③ |④---|
口口口口
76
口口口口 |①---|
③口口口 |②---|
①口口③ |③---|
口②口口
77
口口口① |①---|
口口口| |②-③-④-|
口口口∧ |⑤-⑥-|
口口口口

②③口④
口④⑤口
口口口口
口口⑥口
78
口口①口 |①---|
口口口口 |②-③-④-|
口④⑤① |⑤---|
②③口口
79
①①口② |①---|
||口口 |②---|
∧∧口口 |③---|
口口口口

③③口口
口口口口
口③口口
口口口口
80
口口口口 |①---|
口口∨∨ |②---|
口口|| |③---|
②口①①

口口口口
口口口③
口口口口
口口③③
81
④④①口 |①-②-|
口②口口 |③---|
―③口 |④---|
口口口口
82
口口③口 |①---|
②③口口 |②---|
②口③口 |③---|
①①口口
83
口①④④ |①-②-|
口口②口 |③---|
口③―< |④---|
口口口口
84
口③口口 |①---|
④口③② |②---|
⑤③口② |③-④⑤|
口口①①
85
口口④口 |①-②-|
口③⑥⑤ |③-④-|
口口②口 |⑤-⑥-|
①口口①
86
口①口口 |①-②-|
②⑤口⑥ |③-④-|
④口③⑦ |⑤-⑥⑦|
口①口口
87
口④口口 |①-②-|
⑤⑥③口 |③-④-|
口②口口 |⑤-⑥-|
①口口①
88
③⑥①口 |①-②-|
口⑦④② |③-④-|
⑤口口口 |⑤-⑥⑦|
口口①口
89
⑤口口① |①-②-|
②口口口 |③-④-|
口①⑥③ |⑤-⑥-|
④口口口
90
口①⑥口 |①-②-|
②口⑦③ |③-④-|
口④口口 |⑤-⑥⑦|
口①口⑤
91
口口口口 |①-②-|
口口口口 |③-④-|
―①口 |⑤-⑥-|
口口口口

∨口口口
|口口口
③口②口
口口口口

⑤―<口
口口口口
④口口口
口口口口

⑥口口口
口口口口
口口口口
口口口口
92
口口①口 |①-②-|
口口|口 |③---|
口口∧口 |④-⑤-|
口口口口

口口②口
④③口③
口⑤口口
口口③口
93
口①口① |①-②-|
口④口④ |③-④-|
⑤口②口 |⑤-⑥-|
③⑥口口
94
口③①② |①-②-|
口口④口 |③-④-|
口口⑦⑥ |⑤-⑥⑦|
⑤口①口
95
①口①口 |①-②-|
④⑤④② |③-④-|
③口口口 |⑤-⑥-|
口口⑥口
96
②①③口 |①-②-|
④口口口 |③-④-|
⑥⑦口口 |⑤-⑥⑦|
口①口⑤
97
②①口① |①-②-|
口④⑤④ |③-④-|
口口③口 |⑤-⑥-|
⑥口口口
98
―①口 |①-②-|
③―<口 |③-④-|
―⑤口 |⑤-⑥-|
口口口口

口口②口
④口口口
口口⑥口
口口口口
99
①①口口 |①---|
||①口 |②---|
∧∧口② |③---|
口口③口
100
②②①① |①---|
口口口口 |②---|
口②②口 |③---|
口③口口
101
②口口口 |①---|
口口①① |②---|
①③|| |③---|
口口∧∧
102
口口口口 |①---|
①①②② |②---|
③口口口 |③---|
口②②口
103
①∨口① |①---|
∧①口口 |②---|
口口②口 |③---|
口口口③
104
②口①口 |①---|
口②口① |②---|
口口口③ |③---|
口②②口
105
口②∨① |①---|
口口①∧ |--②-|
①口口口 |----|
口口口口
106
口口口口 |①---|
①口口口 |②---|
口②口口 |③---|
口口③口
107
①①口口 |①---|
口口口口 |--②-|
口口口口 |----|
②②口口
108
④⑤口③ |①---|
口①③口 |②---|
④⑤口口 |③-④⑤|
③口②口
109
口口①口 |①---|
口口口口 |----|
口口①口 |----|
口口口口
最終更新:2021年01月12日 03:44