アットウィキロゴ
インドがパッカーン!!煩悩マハラジャドリーム
ARM × かたほとり ft. 柊木りお

EXTREME

Level: 10.3
BPM: 173
Notes(hold): 854(8)

1
口口口口 |----|
口口口口 |----|
口口口口 |----|
口口口口 |----|
2
口∨∨口 |①---|
口∨∨口 |----|
口①①口 |----|
口①①口 |----|
3
口口口口 |----|
口口口口 |----|
口口口口 |----|
口口口口 |----|
4
口口口口 |----|
口口口口 |----|
口口口口 |----|
口口口口 |----|
5
口口口口 |----|
口口口口 |----|
口口口口 |----|
口口口口 |----|
6
口口口口 |----|
口口口口 |----|
口①①口 |①---|
口①①口 |----|
7
口①①口 |----|
①②②① |①---|
口①①口 |----|
口口口口 |--②-|
8
∨口口∨ |----|
┃口口┃ |--①-|
┃口口┃ |----|
①口口① |----|
9
口口口口 |----|
口口口口 |----|
口口口口 |----|
口口口口 |----|
10
口口口口 |①---|
口口口口 |----|
口口口口 |----|
①①①① |----|
11
口⑤⑥口 |①-②-|
④口口⑦ |③-④-|
③口口⑧ |⑤-⑥-|
口②①口 |⑦-⑧-|
12
口④口② |①---|
口⑥⑥口 |②-③-|
口①①口 |④-⑤-|
⑤口③口 |⑥---|
13
口⑤口口 |①②③④|
②口口① |⑤-⑥-|
④口口③
口口⑥口

口口⑪⑪
口⑦⑧⑪
口⑩⑨口 |⑦⑧⑨⑩--|
⑪口口口 |⑪---|
14
①③⑤⑦ |①-②-|
①③⑤⑦ |③-④-|
口⑥⑧口 |⑤-⑥-|
口②④口 |⑦-⑧-|
15
口口口口 |①-②-|
口①③口 |③-④-|
口口口口
④口口②

口⑥⑦⑧
⑤口口⑤
口⑥⑦⑧ |⑤-⑥-|
口⑥⑦⑧ |⑦-⑧-|
16
②口口口 |①---|
口①①口 |②-③-|
口口口口
口③口口

口口④口
口⑥⑥口
口口口口 |④-⑤-|
口口口⑤ |⑥---|
17
④④口口 |①--②|
④⑨⑨② |③-④-|
①口③① |⑤⑥⑦⑧|
⑧⑦⑥⑤ |⑨---|
18
口②①口 |①-②-|
③口口⑧ |③-④-|
④口口⑦ |⑤-⑥-|
口⑤⑥口 |⑦-⑧-|
19
①⑦口② |①-②-|
⑥③④口 |③-④-|
⑤①②⑤ |⑤---|
③口口④ |⑥-⑦-|
20
⑤口④⑤ |①---|
口口④① |②-③-|
③口①④ |④---|
口②①口 |⑤---|
21
口口④口 |①-②③|
口③⑤口 |④-⑤-|
口⑤②口
①口口①

⑥⑥口⑦
口口口⑦
⑨口口口 |⑥-⑦-|
⑨口⑧⑧ |⑧-⑨-|
22
口②口口 |①---|
③①口④ |②-③-|
⑤口①④ |④---|
口⑥口口 |⑤-⑥-|
23
①①①① |①---|
口口口口 |②---|
口口口口
口口②②

口⑤口⑤
③⑤③⑤
④③⑤③ |③-④-|
④口口口 |⑤---|
24
口口①⑤ |①-②-|
⑥④④口 |③---|
口④④③ |④---|
④②口④ |⑤-⑥-|
25
④口口口 |①---|
口⑤③口 |②-③-|
②口⑥口 |④-⑤-|
口②①⑦ |⑥-⑦-|
26
口②⑦口 |①-②-|
①⑥③① |③-④-|
口④⑧口 |⑤-⑥-|
⑤口⑤口 |⑦-⑧-|
27
口①⑤③ |①-②-|
口口②⑥ |③---|
④④口口 |④---|
口口口口 |⑤-⑥-|
28
口④④口 |①---|
①⑧⑦口 |②-③-|
④⑥⑤② |④---|
①①③口 |⑤⑥⑦⑧|
29
①⑤④① |①---|
⑥口口③ |--②-|
口口口口 |③-④-|
口②②口 |⑤-⑥-|
30
口⑤③口 |①---|
口①①口 |②---|
口④⑥口 |③-④-|
②口口② |⑤-⑥-|
31
口口③④ |①---|
口②口④ |②---|
①口口④ |③---|
①②③④ |④---|
32
①③⑤⑦ |①---②-|
口口口口 |③---④-|
⑧②④⑥ |⑤---⑥-|
口口口口 |⑦---⑧-|
33
口⑥⑥口 |①-②-③-|
④③②① |④---⑤-|
口⑦⑦口 |⑥---|
口⑤口口 |⑦---|
34
口口口④ |①---②-|
口②口① |③---④-|
口口口口
口口③口

口⑥⑤口
⑦口口⑦
⑤口口⑥ |⑤---⑥-|
⑤口口⑥ |--⑦---|
35
②⑦口③ |①---|
⑥④⑤⑥ |②-③-④-|
④口口⑤ |⑤---|
口①①口 |⑥--⑦|
36
③口口口 |①---|
口②口③ |②---|
口①口口 |③---|
口口①①
37
口③口口 |①---|
口②口③ |②---|
口口口口 |③---|
①口①①
38
③④⑤口 |①---|
口②口④ |②-③-|
①口口口 |④-⑤-|
口口①①
39
口口口① |①-②-|
①口②口 |③---|
①④④③ |④---|
口口口口
40
口口③① |①---|
③口②口 |②---|
口口口② |③---|
①①口口
41
口口口② |①---|
③口②口 |②---|
口口①③ |③---|
①①口口
42
口口①口 |①---|
③口②① |②---|
口口④③ |③-④-|
①①口口
43
口③②① |①-②-|
口口口口 |③---|
口①口口 |④---|
口④④口
44
①⑨④⑥ |①②③④|
口⑤⑩口 |⑤---|
③⑦②⑧ |⑥⑦⑧⑨|
口口口口 |⑩---|
45
口口口口 |①②③④|
⑥④⑨① |⑤---|
口⑩⑤口 |⑥⑦⑧⑨|
⑧②⑦③ |⑩---|
46
③②①口 |①---②-|
⑤口④① |--③---|
④口⑤② |④---⑤-|
口⑥⑥③ |--⑥---|
47
⑤口口⑧ |①②③④|
口①⑥② |⑤⑥⑦-|
⑦③口④ |⑧-⑨-|
⑨口⑪⑩ |⑩⑪--|
48
口口口口 |①②--|
①②口口 |③④⑤⑥|
⑥⑤④③
口口口口

⑩⑨⑧⑦
⑪口口⑪
口口口口 |⑦⑧⑨⑩|
⑫口口⑫ |⑪-⑫-|
49
口⑧⑦口 |①②③④|
口⑥⑤口 |⑤⑥⑦⑧|
口④③口
口②①口

口口口⑬
口口口⑬
⑩口口⑨ |⑨⑩⑪⑫|
⑫口⑬⑪ |⑬---|
50
⑦口④⑦ |①---|
①⑤①口 |②--③|
⑥②口③ |④-⑤-|
口②口口 |⑥-⑦-|
51
口口口口 |①-②-|
③口①口 |③-④-|
口口口口
④口②口

口⑤⑤口
口⑦⑦⑦
⑥⑥⑥⑥ |⑤-⑥-|
口⑥口⑥ |⑦---|
52
⑤③⑦① |①-②-|
口口口口 |③-④-|
口口口口 |⑤-⑥-|
④⑥②⑧ |⑦-⑧-|
53
③⑨⑨③ |①-②-|
①⑤⑥① |③-④-|
⑨⑧⑦口 |⑤⑥⑦⑧|
⑨④②口 |⑨---|
54
④口口① |①---|
②口口⑤ |②-③-|
④口口① |④---|
④③⑥① |⑤-⑥-|
55
⑦③②④ |①--②|
⑦①①口 |③-④-|
口①①⑥ |⑤-⑥-|
⑤口口⑥ |⑦---|
56
⑥④①⑤ |①--②|
口口口① |③-④-|
②③口⑤ |⑤---|
⑦口口口 |⑥-⑦-|
57
⑧⑤⑥⑨ |①②③④|
⑤①②⑥ |⑤-⑥-|
⑦③④口 |⑦-⑧-|
⑧⑦口⑨ |⑨---|
58
口②⑥口 |①---|
①⑦①口 |②-③-|
口④口⑤ |④--⑤|
③口口口 |⑥-⑦-|
59
口②口口 |①--②|
④口③① |③-④-|
①口口口
④口口口

口口⑧⑧
口⑦口⑧
口口⑥口 |⑤-⑥⑦|
口⑤口⑤ |⑧---|
60
⑤①⑥⑩ |①-②③|
②口⑦口 |④-⑤-|
⑧①⑥③ |⑥-⑦⑧|
④口⑨口 |⑨-⑩-|
61
口口③⑥ |①-②-|
④①口① |③-④-|
口⑤③⑤ |⑤---|
口②口⑥ |⑥---|
62
⑧①⑦口 |①-②-③-|
口④口① |④-⑤-⑥-|
②口口⑥ |⑦---|
⑧⑤③口 |⑧---|
63
口②口⑧ |①-②-③-|
⑤⑦①③ |④-⑤-⑥-|
①口口⑥ |⑦---|
口④口⑧ |⑧---|
64
⑫③⑨口 |①-②-③-|
⑥口⑤② |④-⑤-⑥-|
①⑩口⑦ |⑦-⑧-⑨-|
⑧④①⑪ |⑩-⑪-⑫-|
65
口②口① |--①②|
口④口③ |③④-⑤|
⑥口口⑦ |⑥-⑦-|
口⑤⑤口

⑧口口⑨
口口口口
口⑩⑩口
口口口口 |⑧-⑨⑩|
66
口⑧⑧口 |①-②-|
②口①⑤ |③-④-|
⑥口口口 |⑤-⑥-|
④口③⑦ |⑦-⑧-|
67
口口口口 |①--②|
口口②④ |③-④-|
口③口④
口①①口

⑤⑥⑥口
⑤口口口
⑤口口口 |⑤---|
⑤口⑥⑥ |⑥---|
68
②口④口 |①---|
口⑥⑥口 |②-③-|
口①①口 |④-⑤-|
口③口⑤ |⑥---|
69
口口⑤口 |①②③④|
①口口② |⑤-⑥-|
③口口④
口⑥口口

⑪⑪口口
⑪⑧⑦口
口⑨⑩口 |⑦⑧⑨⑩--|
口口口⑪ |⑪---|
70
⑦⑤③① |①-②-|
⑦⑤③① |③-④-|
口⑧⑥口 |⑤-⑥-|
口④②口 |⑦-⑧-|
71
口口口口 |①-②-|
口③①口 |③-④-|
口口口口
②口口④

⑧⑦⑥口
⑤口口⑤
⑧⑦⑥口 |⑤-⑥-|
⑧⑦⑥口 |⑦-⑧-|

72
口口口② |①---|
口①①口 |②-③-|
口口口口
口口③口

口④口口
口⑥⑥口
口口口口 |④-⑤-|
⑤口口口 |⑥---|
73
口口④④ |①--②|
②⑨⑨④ |③-④-|
①③口① |⑤⑥⑦⑧|
⑤⑥⑦⑧ |⑨---|
74
口①②口 |①-②-|
⑧口口③ |③-④-|
⑦口口④ |⑤-⑥-|
口⑥⑤口 |⑦-⑧-|
75
②⑥⑥① |①-②-|
口④③口 |③-④-|
⑤②①⑤ |⑤---|
④口口③ |⑥---|
76
口口口① |①-②③|
③口口① |④-⑤-|
口⑤口④
口②口④

口⑨⑥⑧
口口⑥⑧
口口口口 |⑥-⑦-|
⑦口口口 |⑧-⑨-|
77
口口③口 |①-②-|
口口③口 |③-④-|
②口口①
口④口①

口口口⑤
口⑥口⑤
口⑨⑦口 |⑤-⑥⑦|
⑤口口⑧ |⑧-⑨-|
78
①口②口 |①-②③|
①口⑤口 |④-⑤-|
④口口口
④口③口

⑨⑥口口
⑨⑥口口
口⑦⑧⑨ |⑥-⑦⑧|
口口⑪⑩ |⑨-⑩⑪|
79
⑤③④⑥ |①-②-|
⑤③口② |③-④-|
①口⑤口 |⑤---|
①口口⑥ |⑥---|
80
口②口口 |①-②-③-|
⑤口①⑥ |④-⑤-⑥-|
口⑦口③ |⑦---|
①④口口

⑧口口口
口口口口
口口口口
⑧口口口 |⑧---|
81
口①⑥⑧ |①-②-③-|
②口口④ |④-⑤-⑥-|
⑦口口① |⑦---|
口⑤③⑧ |⑧---|
82
①口⑤口 |①-②-③-|
口③口② |④-⑤-⑥-|
⑥口①口
口口④口

口⑧口⑩
口口口⑫
口⑪口⑦ |⑦-⑧-⑨-|
口⑨口口 |⑩-⑪-⑫-|
83
①口②口 |--①②|
③口④口 |③④-⑤|
⑦口口⑥ |⑥-⑦-|
口⑤⑤口

⑨口口⑧
口口口口
口⑩⑩口
口口口口 |⑧-⑨⑩|
84
口口口口 |①-②-|
口①口② |③-④-|
口口口口
口③口④

口口⑤口
口⑦口口
⑥口⑧口 |⑤-⑥-|
口口口口 |⑦-⑧-|
85
①口⑤① |①-②-|
④口⑤口 |③-④-|
口③口口 |⑤---|
②口⑤口
86
①⑤口① |①-②-|
口⑤口④ |③-④-|
口口③口 |⑤---|
口⑤口②
87
②⑤⑤口 |①-②-|
口口③⑤ |③-④-|
①口⑤① |⑤---|
④口⑤口
88
⑤⑤口② |①-②-|
口③⑤口 |③-④-|
①⑤口① |⑤---|
口⑤口④
89
∨口口∨ |①---|
口口口口 |----|
①口口① |----|
口口口口
90
口口口口 |----|
口口口口 |----|
口口口口 |----|
口口口口
91
口口口口 |①---|
口口①口 |----|
①①①① |----|
口口①口 |----|
最終更新:2021年04月20日 14:51