アットウィキロゴ
リリーゼと炎龍レーヴァテイン
黒猫ダンジョン

EXTREME

Level: 10.6
BPM: 200
Notes(hold): 903(40)

1
口口口口 |----|
口口口口 |----|
口口口口 |----|
口口口口 |----|
2
口口口口 |----|
口口口口 |----|
口口口口 |----|
口口口口 |----|
3
口⑤①口 |①-②-|
②口口⑥ |③-④-|
口③⑦口 |⑤-⑥-|
④口口⑧ |⑦-⑧-|
4
口⑤①口 |①-②-|
②口口⑥ |③-④-|
口③⑦口 |⑤-⑥-|
④口口⑧ |⑦-⑧-|
5
口⑤①口 |①-②-|
②口口⑥ |③-④-|
口③⑦口 |⑤-⑥-|
④口口⑧ |⑦-⑧-|
6
①⑤①口 |①-②-|
②⑥口⑥ |③-④-|
口③⑦口 |⑤-⑥-|
④口口⑧ |⑦-⑧-|
7
口⑤①口 |①-②-|
②口口⑥ |③-④-|
口③⑦③ |⑤-⑥-|
④⑧口⑧ |⑦-⑧-|
8
口⑤①⑤ |①-②-|
②⑦口⑥ |③-④-|
⑥③⑦口 |⑤-⑥-|
④⑧口⑧ |⑦-⑧-|
9
①口①口 |①-②-|
②口②口 |③-④-|
口③口③
④口④口

⑧⑤口口
口⑥口⑥
⑤口⑦口 |⑤-⑥-|
口⑦口⑧ |⑦-⑧-|
10
口⑤①① |①---|
②口③口 |②---③-|
口④口口 |④---|
口口口口 |⑤---|
11
口口口⑤ |①---|
⑥口③口 |②---③-|
口④口⑦ |④---|
②口口① |⑤-⑥-⑦-|
12
⑤口口口 |①---|
口③口口 |②---③-|
①口④口 |④---|
口①口② |⑤---|
13
口口⑦① |①---②-|
④⑧③口 |③---|
口②⑨⑤ |④-⑤-⑥-|
⑥口口口 |⑦-⑧-⑨-|
14
①①口② |①---|
口口④口 |②---③-|
口③口口 |④---|
⑤口口口 |⑤---|
15
②口⑤口 |①---|
口⑥③口 |②---③-|
口④⑦口 |④---|
口口口① |⑤-⑥-⑦-|
16
口口口② |①---|
口口④口 |②---③-|
①③口口 |④---|
⑤①口口 |⑤---|
17
⑦②口③ |①---|
⑧口口④ |②---|
⑨口口⑤ |③④⑤⑥|
⑩口①⑥ |⑦⑧⑨⑩|
18
⑫口口⑨ |①-②-③-|
⑪⑥③⑧ |④-⑤-⑥-|
⑩⑤②⑦ |⑦-⑧-⑨-|
口④①口 |⑩-⑪-⑫-|
19
口④①口 |①-②-③-|
⑫⑤②⑨ |④-⑤-⑥-|
⑪⑥③⑧ |⑦-⑧-⑨-|
⑩口口⑦ |⑩-⑪-⑫-|
20
口③②① |①-②-③-|
口⑦⑧⑨ |④-⑤-⑥-|
⑫⑪⑩口 |⑦-⑧-⑨-|
口④⑤⑥ |⑩-⑪-⑫-|
21
口③②① |①-②-③-|
⑦⑧⑨口 |④-⑤-⑥-|
口⑫⑪⑩ |⑦-⑧-⑨-|
④⑤⑥口 |⑩-⑪-⑫-|
22
⑦③②口 |①-②-③-|
口⑧⑨① |④-⑤-⑥-|
④⑫⑪口 |⑦-⑧-⑨-|
口⑤⑥⑩ |⑩-⑪-⑫-|
23
⑦⑧③口 |①-②-③-|
④口⑨② |④-⑤-⑥-|
⑤⑫口① |⑦-⑧-⑨-|
口⑥⑪⑩ |⑩-⑪-⑫-|
24
口口⑦③ |①-②-③-|
④⑫⑧② |④-⑤-⑥-|
⑤⑪⑨① |⑦-⑧-⑨-|
⑥⑩口口 |⑩-⑪-⑫-|
25
⑥⑤⑧⑦ |①-②-③-|
④口口⑨ |④-⑤-⑥-|
⑫口口① |⑦-⑧-⑨-|
⑩⑪②③ |⑩-⑪-⑫-|
26
口④⑧④ |①-②-|
③⑦口⑦ |③-④-|
口②⑥① |⑤-⑥-|
口口口⑤ |⑦-⑧-|
27
⑧④⑧口 |①-②-|
③口口⑦ |③-④-|
口②⑥② |⑤-⑥-|
①⑤口⑤ |⑦-⑧-|
28
口④⑧口 |①-②-|
③口③⑦ |③-④-|
⑥②⑥口 |⑤-⑥-|
①口口⑤ |⑦-⑧-|
29
口④⑧④ |①-②-|
③⑦口⑦ |③-④-|
口②⑥口 |⑤-⑥-|
①口①⑤ |⑦-⑧-|
30
口⑥口口 |--①②|
口口⑤口 |③④⑤⑥|
②④口①
口口③口
31
⑥口⑥① |①-②-|
④⑥口③ |③-④-|
⑦口③⑧ |⑤-⑥-|
②③口⑤ |⑦-⑧-|
32
⑥④口④ |①-②-|
③⑦①⑦ |③-④-|
口④⑦口 |⑤-⑥-|
①②①⑤ |⑦---|
33
口口④口 |①-②-|
③口口口 |③-④-|
口③口②
①口③口

口⑥口⑥
口口⑥⑦
⑤口口口 |⑤-⑥-|
⑧口口口 |⑦-⑧-|
34
⑤⑨④⑩ |①---|
③①⑫口 |②③④⑤|
⑦⑬②⑥ |⑥⑦⑧⑨|
⑪①⑧① |⑩⑪⑫⑬|
35
口口口口 |①---|
③口口② |②-③-|
口口②口
口②口①

⑤口⑤口
口⑤口口
⑥口口④ |④-⑤-|
口口口⑦ |⑥-⑦-|
36
⑥④⑧④ |①-②-|
③⑦①⑦ |③-④-|
口④⑦⑤ |⑤-⑥-|
①②①口 |⑦-⑧-|
37
口口口口 |①-②-|
③口口口 |③-④-|
④③口口
①口③②

口⑥⑦⑥
口口⑥口
口口口⑤ |⑤-⑥-|
⑧口口口 |⑦-⑧-|
38
⑤⑨⑫⑧ |①---|
⑪①口② |②③④⑤|
③⑦⑩⑥ |⑥⑦⑧⑨|
⑬①④① |⑩⑪⑫⑬|
39
⑤口口口 |①-②-|
口⑧②③ |③-④-|
⑦口口口 |⑤-⑥-|
口⑥④① |⑦-⑧-|
40
⑧④②口 |①-②-|
口⑦口口 |③-④-|
⑥口口口 |⑤-⑥-|
口⑤③① |⑦-⑧-|
41
口口⑧① |①-②-|
⑤⑨④口 |③-④-|
口口③⑥ |⑤⑥⑦-|
⑦口②口 |⑧-⑨-|
42
口⑥口口 |①-②-|
⑦口③① |③-④-|
口口②口 |⑤-⑥-|
⑧⑤④口 |⑦-⑧-|
43
⑤口口口 |①-②-|
口⑧②③ |③-④-|
⑦①口口 |⑤-⑥-|
口⑥④① |⑦-⑧-|
44
⑧④②口 |①-②-|
口⑦口口 |③-④-|
⑥口口口 |⑤-⑥-|
口⑤③① |⑦-⑧-|
45
口口⑧① |①-②-|
⑤⑨④口 |③-④-|
口①③⑥ |⑤⑥⑦-|
⑦口②口 |⑧-⑨-|
46
口口口⑤ |①-②-|
⑥口⑧① |③-④-|
①⑦②口 |⑤-⑥-|
口⑤④③ |⑦-⑧-|
47
①⑦口④ |①-②-|
口③口⑧ |③-④-|
⑤口②⑥ |⑤-⑥-|
①⑦口④ |⑦-⑧-|
48
口⑥②口 |①-②-|
①口口⑧ |③-④-|
⑦③⑤口 |⑤-⑥-|
口口②④ |⑦-⑧-|
49
①⑦口④ |①-②-|
⑤口②⑧ |③-④-|
口③口⑥ |⑤-⑥-|
①⑦口④ |⑦-⑧-|
50
口口②口 |①-②-|
⑤口④⑧ |③-④-|
①③口⑥ |⑤-⑥-|
口⑦②口 |⑦-⑧-|
51
①⑧口④ |①-②-|
口③⑤⑨ |③-④-|
⑥口②⑦ |⑤⑥⑦-|
①⑧口④ |⑧-⑨-|
52
口⑧②口 |①-②-|
①⑥口⑨ |③-④-|
⑩③⑤⑦ |⑤⑥⑦⑧|
口口②④ |⑨-⑩-|
53
①⑧口④ |①-②-|
口⑥②⑨ |③-④-|
口③⑤⑦ |⑤⑥⑦-|
①⑧口④ |⑧-⑨-|
54
⑩⑨②⑧ |①-②-|
⑦⑤④口 |③-④-|
①③口⑥ |⑤⑥⑦⑧|
口口②口 |⑨-⑩-|
55
⑪口口口 |①-②③|
⑧⑨⑩∨ |④-⑤⑥|
⑦⑥⑤┃ |⑦-⑧⑨|
②③④① |⑩-⑪-|
56
⑧口①口 |①-②-|
口口口⑤ |③-④-|
口④⑥③ |⑤-⑥-|
口②⑦① |⑦-⑧-|
57
口③②① |①②③-|
∨④⑤⑥ |④⑤⑥-|
┃⑨⑧⑦ |⑦⑧⑨-|
①⑩⑪⑫ |⑩⑪⑫-|
58
口④③① |①-②-|
口⑥口⑦ |③-④-|
②口口⑤ |⑤-⑥-|
①口⑧口 |⑦-⑧-|
59
②⑪⑧① |①-②③|
③⑦⑨┃ |④-⑤⑥|
④⑥⑩∧ |⑦-⑧⑨|
口⑤口口 |⑩-⑪-|
60
①口⑧① |①-②-|
口④口口 |③-④-|
⑤口口② |⑤-⑥-|
③⑦口⑥ |⑦-⑧-|
61
①口口① |①②③-|
┃口⑥② |④⑤⑥-|
∧口⑤③
口口④口

口⑦口口
⑫⑧口口
⑪⑨口口 |⑦⑧⑨-|
⑩口口口 |⑩⑪⑫-|
62
①口④① |①-②-|
口⑦口⑥ |③-④-|
口口⑧③ |⑤-⑥-|
口②⑤口 |⑦-⑧-|
63
⑤①⑦① |①-②-③-|
②⑨⑦⑩ |④-⑤-⑥-|
⑥④⑫④ |⑦-⑧-⑨-|
③⑧口⑪ |⑩-⑪-⑫-|
64
⑦①⑦② |①-②-③-|
③⑨⑧⑨ |④-⑤-⑥-|
⑪⑩⑪④ |⑦-⑧-⑨-|
⑤⑫⑥口 |⑩-⑪-⑫-|
65
⑧①⑪① |①-②-③-|
③口⑦⑨ |④-⑤-⑥-|
⑫口⑩④ |⑦-⑧-⑨-|
⑤口⑥② |⑩-⑪-⑫-|
66
口①⑩① |①-②-③-|
⑦②⑦⑪ |④-⑤-⑥-|
⑫④⑨④ |⑦-⑧-⑨-|
⑥③⑤⑧ |⑩-⑪-⑫-|
67
②①⑩① |①-②-③-|
⑦③⑦口 |④-⑤-⑥-|
⑪④⑫④ |⑦-⑧-⑨-|
⑨⑥⑤⑧ |⑩-⑪-⑫-|
68
②①⑨① |①-②-③-|
⑦③⑧⑦ |④-⑤-⑥-|
口④⑫④ |⑦-⑧-⑨-|
⑪⑥⑤⑩ |⑩-⑪-⑫-|
69
②①⑩口 |①-②-③-|
⑫③口⑨ |④-⑤-⑥-|
⑦④⑪⑧ |⑦-⑧-⑨-|
口⑥⑤口 |⑩-⑪-⑫-|
70
口①口∨ |①---|
口口口┃
口口口┃
口口口①

②口口口
┃口口口 |--②-|
∧口口口 |----|
口口口② |----|
71
①①口① |①---|
②口②口 |②---|
口③口③ |③---|
④口④口 |④---|
72
口口口口 |①---|
口∨口∨
口┃口┃
口①口①

∨口∨口
┃口┃口 |--②-|
②口②口 |----|
口②口②

口∨口∨
口③口③
③口③口
口口口口 |③---|
73
口口口口 |①---|
②口①口 |②---|
口口口口
口口口口

⑦口口口
口③⑥③
⑤③口口 |③---|
口口④口 |④⑤⑥⑦|
74
口口口∨ |①---|
口口口┃
口口口①
口口口口

口口口口
②口口口 |--②-|
┃口口② |----|
∧口口口 |----|
75
①口①口 |①---|
①②口② |②---|
③口③口 |③---|
口④口④ |④---|
76
口>━① |①-②③|
口②③口 |④-|
口④口口
口口口口

⑤━<⑤
口口口⑥ |⑤-|
⑦口口⑧ |⑥⑦⑧-|
口口口口

⑨口口口
口口口口
口口⑩口
口口⑨口 |⑨-⑩-|
77
口口口口 |①---|
①━━<
口口口口
口口口口

>━━②
②口口口 |--②-|
口口口口 |----|
口口口口

口口⑥③
口⑤口口
口口④口
口③口口 |③④⑤⑥|
78
口①口∨ |①---|
口口口┃
口口口┃
口口口①

②口口口
┃口口口 |--②-|
∧口口口 |----|
口口口② |----|
79
①①口① |①---|
②口②口 |②---|
口③口③ |③---|
④口④口 |④---|
80
口口口口 |①---|
口∨口∨
口┃口┃
口①口①

∨口∨口
┃口┃口 |--②-|
②口②口 |----|
口②口②

口∨口∨
口③口③
③口③口
口口口口 |③---|
81
口口口口 |①---|
②口①口 |②---|
口口口口
口口口口

⑦口口口
口③⑥③
⑤③口口 |③---|
口口④口 |④⑤⑥⑦|
82
口口口∨ |①---|
口口口┃
口口口①
口口口口

口口口口
②口口口 |--②-|
┃口口② |----|
∧口口口 |----|
83
①口①口 |①---|
①②口② |②---|
③口③口 |③---|
口④口④ |④---|
84
口①口① |①-②-|
③⑤③⑤ |--③-|
⑥④⑥④ |④---|
②口②口 |⑤-⑥-|
85
④①口① |--①-|
口口③口 |②---|
口③口口 |③-④-|
②口②④ |----|
86
④①⑥① |①-②-|
口⑤口③ |--③-|
③口⑤口 |④---|
②⑥②④ |⑤-⑥-|
87
口④口② |--①-|
③口①口 |②---|
口③口① |③-④-|
④口②口 |----|
88
口口∨∨ |①-②-|
口口┃┃
口口┃┃
口口②①

∨∨口口
┃┃口口 |③-④-|
④⑤口口 |⑤-|
口③③③

口口∨∨
口口⑧⑦
⑥⑥⑥口 |⑥-|
口口口口 |⑦-⑧-|
89
口口口口 |①-|
口①①①
口口口口
口口口口

∨∨口口 |②-|
┃┃口口 |③-|
┃┃口口
②③口口

口口∨∨
口口┃┃ |④-|
口口⑥⑤ |⑤-⑥-|
④④④口

∨口口口
⑧口口口
口⑦⑦⑦
口口口口 |⑦-⑧-|
90
口∨口口 |①-|
口①口口
口口口口
口口口口

③③③③ |②-|
②②②口 |③-④-|
口口口口 |----|
④④④④ |----|
最終更新:2021年02月02日 02:23