恋 No リセットゲーム!!!!!
DJ Genki feat. ななひら,yukacco,藍月なくる
ADVANCED
Level: 9.1
BPM: 190
Notes(
hold): 642(32)
 
1
③①③① |①---|
□□□□ |--②-|
②□②□ |----|
□□□□ |--③-|
2
□□□□ |----|
□②②□ |①---|
□□□① |②---|
□③③□ |③---|
3
①□①□ |①---|
□□□□ |--②-|
□②□② |----|
□□□□ |----|
4
∨□□∨ |①---|
①□□① |----|
□□□□ |----|
□□□□ |--②-|
□□□□
②②②②
□□□□
□□□□
5
④④①⑤ |--①-|
□□⑤□ |②-③-|
②□③□ |--④-|
□□□□ |--⑤-|
6
□□④□ |--①-|
①□□□ |--②-|
□①③② |--③-|
□□②□ |④---|
7
⑤⑤□□ |①-②-|
□③□④ |③-④-|
□⑥⑥□ |--⑤-|
□①□② |--⑥-|
8
⑥□□⑤ |--①-|
□②①⑦ |②-③-|
④□□③ |④-⑤-|
□□□□ |⑥-⑦-|
9
⑤①④④ |--①-|
□⑤□□ |②-③-|
□③□② |--④-|
□□□□ |--⑤-|
10
□④□□ |--①-|
□□□① |--②-|
②③①□ |--③-|
□②□□ |④---|
11
□□⑤⑤ |①-②-|
④□③□ |③-④-|
□⑥⑥□ |--⑤-|
②□①□ |--⑥-|
12
③□□⑥ |①---|
□④□□ |②---|
①□⑤② |③-④-|
①□□② |⑤-⑥-|
13
⑤⑤□□ |--①-|
①□②□ |②---|
□□□□ |③-④-|
□③□④ |--⑤-|
14
□□□□ |--①-|
□②□⑥ |②-③-|
③□⑤① |④-⑤-|
□④□□ |--⑥-|
15
①①④□ |①---|
□④□□ |②-③-|
③□⑤□ |--④-|
□⑤□② |--⑤-|
16
②□□□ |--①-|
③□□① |②-③-|
□⑤□□ |④---|
□□□④ |--⑤-|
17
□④①① |①---|
□④⑤□ |②-③-|
□□⑤□ |--④-|
③□②□ |--⑤-|
18
①④□□ |--①-|
□⑤□② |②-③-|
③⑥□□ |--④-|
□□□□ |⑤-⑥-|
19
②□□② |①---|
□□□□ |----|
□□①③ |②---|
□□□□ |--③-|
20
□□①□ |①--②|
④②①④ |--③-|
③②□□ |④---|
③□□□ |----|
21
□①□⑤ |①---|
□④⑤③ |②---|
□□②□ |③-④-|
□□□□ |--⑤-|
22
□□□□ |--①-|
①□□□ |--②-|
③①④② |--③-|
□③②□ |--④-|
23
①①□⑤ |①---|
□④□② |②---|
□③□□ |③-④-|
□□□□ |--⑤-|
24
□□□□ |--①-|
①⑤①④ |②-③-|
②□②⑥ |--④-|
③□③□ |⑤-⑥-|
25
□□□② |①---|
□□□□ |----|
③①□□ |②---|
□□□□ |--③-|
26
□①①□ |①---|
□□□② |--②-|
□④④□ |③---|
□③③□ |--④-|
27
①□⑤② |①---|
①③③② |②---|
□□□□ |③-④-|
□④④□ |--⑤-|
28
□□□□ |--①-|
④□□□ |②---|
③③②② |③---|
①③⑤② |④--⑤|
29
□□①② |①---|
□□②① |----|
□□□□ |②---|
□□□□ |----|
30
□□③□ |①---|
□□□□ |----|
①②□□ |②---|
②①□□ |③---|
31
□□④□ |①---|
□①□□ |②---|
□□②□ |③---|
□③□□ |④--⑤|
□□□□
□□□□
□□⑤
□□□□
32
□□□□ |----|
□□□② |----|
□□□① |①---|
□③□□ |②--③|
33
②①□□ |①---|
①②□□ |----|
□□□□ |②---|
□□□□ |----|
34
□□□□ |①---|
□□□□ |----|
□□②① |②---|
□□①② |----|
35
□④①④ |①---|
□②□□ |②---|
③⑤□⑤ |③---|
□□□□ |④--⑤|
36
③□□□ |----|
③□□□ |----|
□□②□ |①-②-|
□①□□ |--③-|
37
□□□① |--①-|
□③□□ |②---|
□□□② |③-④-|
□④⑤⑤ |--⑤-|
38
①□②□ |--①-|
□□⑤□ |②---|
□③□④ |③-④-|
□□□□ |--⑤-|
39
⑤□②③ |①---|
□①□① |②---|
□④②□ |③-④-|
□□□□ |--⑤-|
40
□□①□ |--①-|
⑤②□□ |②-③-|
□⑥③□ |④---|
□④□□ |⑤-⑥-|
41
□①□① |①---|
□∧□∧ |②---|
□□□□ |③---|
□□□□ |④---|
□②□②
□③□③
□∧□∧
□□□□
□□□□
□④□④
□□□□
□□□□
42
□□□□ |①---|
□□□□ |②---|
□①□① |③-④-|
□∧□∧ |--⑤-|
□□□□
③□④□
③②④②
⑤□□□
43
□④②□ |--①-|
□①□③ |②-③-|
□□□⑤ |--④-|
□□□□ |-⑤--|
44
□□□□ |①---|
①①< |----|
①□□ |----|
①①< |②---|
□□□□
□②②□
□②□□
□②②□
45
∨③□① |①--②|
□□□□ |--③-|
□⑥②④ |④-⑤-|
⑦□⑤□ |⑥-⑦-|
46
④□□③ |----|
④□①① |①---|
②□□□ |②---|
①②□□ |③-④-|
47
□⑥⑥□ |--①-|
□□①□ |②-③-|
④□⑤② |--④-|
□□③□ |⑤-⑥-|
48
□□□∨ |--①-|
①□③□ |②-③-|
□②□④ |④---|
□□□□ |⑤-⑥-|
□⑥⑥□
□□□□
□□□⑤
□□□□
49
∨□□□ |--①-|
□□□□ |②-③-|
④□②□ |④---|
□③□① |--⑤-|
□□⑤
□□□□
⑤□□□
□□□□
50
□□②① |----|
①①□② |①---|
④□□□ |②---|
④□□③ |③-④-|
51
□①□□ |--①-|
④□②⑤ |②-③-|
□③□□ |④---|
□□□□ |--⑤-|
52
□④④□ |①---|
□①□□ |②-③-|
□□□□ |--④-|
□③□② |--⑤-|
□□□□
⑤□□⑤
□□□□
∧□□∧
53
□□□□ |----|
A□□A |--A-|
□□□□ |①-②-|
□□□□ |③-④-|
□□□∨
□□□□
①□③□
□②□④
54
③□□④ |----|
①①□④ |①---|
□□□② |②---|
□□②① |③-④-|
55
□⑥⑥□ |--①-|
□①□□ |②-③-|
②⑤□④ |--④-|
□③□□ |⑤-⑥-|
56
∨□□□ |--①-|
□③□① |②-③-|
④□②□ |④---|
□□□□ |⑤-⑥-|
□⑥⑥□
□□□□
⑤□□□
□□□□
57
□□□∨ |--①-|
□□□□ |②-③-|
□②□④ |④---|
①□③□ |⑤-⑥-|
⑥□□<
□□□□
□□□⑤
□□□□
58
①②□□ |----|
②□①① |①---|
□□□④ |②---|
③□□④ |③-④-|
59
□□①□ |--①-|
□②□④ |②-③-|
□□③□ |④---|
⑤□□□ |--⑤-|
60
④④⑤⑤ |①-②-|
□□□□ |③-④-|
②□③□ |--⑤-|
□□①□ |--⑥-|
□□□□
⑥□□⑥
□□□□
∧□□∧
61
□□□□ |----|
①①①① |----|
□□□□ |----|
□□□□ |①---|
62
④④①⑤ |--①-|
□□⑤□ |②-③-|
②□③□ |--④-|
□□□□ |--⑤-|
63
□□④□ |--①-|
①□□□ |--②-|
□①③② |--③-|
□□②□ |④---|
64
⑤⑤□□ |①-②-|
□③□④ |③-④-|
□⑥⑥□ |--⑤-|
□①□② |--⑥-|
65
⑤□□④ |--①-|
③②①⑥ |②-③-|
□□□□ |--④-|
□□□□ |⑤-⑥-|
66
⑤①④④ |--①-|
□⑤□□ |②-③-|
□③□② |--④-|
□□□□ |--⑤-|
67
□④□□ |--①-|
□□□① |--②-|
②③①□ |--③-|
□②□□ |④---|
68
□□⑤⑤ |①-②-|
④□③□ |③-④-|
□⑥⑥□ |--⑤-|
②□①□ |--⑥-|
69
□□□□ |①--②|
□③□① |--③-|
□□□□ |④-⑤-|
□□②□ |⑥-⑦-|
□□□∨
□□□□
④□⑥□
□⑤□⑦
70
④①④□ |----|
①③□□ |①---|
□□③② |②---|
□□②① |③-④-|
71
□⑥⑥□ |--①-|
□□④① |②-③-|
□②□□ |--④-|
⑤□□③ |⑤-⑥-|
72
∨□□□ |--①-|
□③□① |②-③-|
④□②□ |④-⑤-|
□□□□ |⑥-⑦-|
□□⑥⑤
⑦□□□
⑥□□□
□□□□
73
□□□∨ |--①-|
□□□□ |②-③-|
□②□④ |④-⑤-|
①□③□ |⑥-⑦-|
⑤⑥□□
⑦□□<
□□□⑥
□□□□
74
④□①□ |----|
①□③① |①---|
②③□□ |②---|
□②□□ |③-④-|
75
□□□① |--①-|
⑤②□□ |②-③-|
□□□③ |④---|
□④□□ |--⑤-|
76
□④④□ |①-②-|
□□①□ |③-④-|
②□③□ |--⑤-|
□⑤⑤□ |--⑥-|
□□□□
⑥□□⑥
□□□□
∧□□∧
77
□□□□ |----|
A□□A |--A-|
□□□□ |①-②-|
□□□□ |③-④-|
∨□□□
□□□□
□③□①
④□②□
78
□④①④ |----|
□□③① |①---|
②③□□ |②---|
①②□□ |③-④-|
79
□⑥⑥□ |--①-|
①④□□ |②-③-|
□□②□ |--④-|
③□□⑤ |⑤-⑥-|
80
□□□∨ |--①-|
①□③□ |②-③-|
□②□④ |④-⑤-|
□□□□ |⑥-⑦-|
⑤⑥□□
□□□⑦
□□□⑥
□□□□
81
∨□□□ |--①-|
□□⑦ |②-③-|
④□②□ |④-⑤-|
□③□① |⑥-⑦-|
□□⑥⑤
□□□□
⑥□□□
□□□□
82
□①□④ |----|
①③□① |①---|
□□③② |②---|
□□②□ |③-④-|
83
①□□□ |--①-|
□□②□ |②-③-|
③□□⑤ |④---|
□□④□ |--⑤-|
84
⑤⑤④④ |①-②-|
□③□② |③-④-|
□①□□ |--⑤-|
□□□□ |--⑥-|
∨□□∨
□□□□
⑥□□⑥
□□□□
85
②□□② |----|
□□□□ |----|
①□□① |--①-|
□□□□ |--②-|
86
□③③□ |①---|
①②②① |②-③-|
□□□□ |--④-|
□□□□ |--⑤-|
□□□□
⑤□□⑤
□□□□
∧④④∧
87
□□□□ |----|
①①①① |----|
□□□□ |----|
□□□□ |--①-|
88
④④①⑤ |--①-|
□□⑤□ |②-③-|
②□③□ |--④-|
□□□□ |--⑤-|
89
□□④□ |--①-|
①□□□ |--②-|
□①③② |--③-|
□□②□ |④---|
90
⑤⑤□□ |①-②-|
□③□④ |③-④-|
□⑥⑥□ |--⑤-|
□①□② |--⑥-|
91
⑥□□⑤ |--①-|
□②①⑦ |②-③-|
④□□③ |④-⑤-|
□□□□ |⑥-⑦-|
92
⑤①④④ |--①-|
□⑤□□ |②-③-|
□③□② |--④-|
□□□□ |--⑤-|
93
□④□□ |--①-|
□□□① |--②-|
②③①□ |--③-|
□②□□ |④---|
94
□□□□ |①-②-|
④□③□ |③-④-|
□□□□ |--⑤-|
②□①□ |--⑥-|
□□⑤⑤
□□□□
□□□□
□⑥⑥□
95
⑤③□④ |①---|
⑤②②④ |②---|
□①①① |③-④-|
□□□□ |⑤---|
96
□∨∨□ |①---|
□□□□ |----|
□①①□ |----|
□□□□ |----|
97
口口口口 |----|
口口口口 |----|
口口口口 |----|
口口口口 |----|
98
口口口口 |①---|
口口口口 |----|
口①①口 |----|
口口口口 |----|
最終更新:2021年06月21日 03:30