アットウィキロゴ
恋 No リセットゲーム!!!!!
DJ Genki feat. ななひら,yukacco,藍月なくる

EXTREME

Level: 10.4
BPM: 190
Notes(hold): 979(42)

1
⑤口⑤① |①---|
②口口③ |②-③-|
④口口① |--④-|
口口口③ |--⑤-|
2
口⑤⑦⑤ |--①-|
口①③口 |②③-④|
口口⑥口 |⑤-⑥-|
②④口口 |⑦---|
3
①⑤口⑤ |①---|
③口口② |②-③-|
①口口④ |--④-|
③口口口 |--⑤-|
4
①口口口 |①---|
┃口口口 |----|
┃口①口
∧口口口

③④口④
口②④②
口④口口 |②-③-|
口口③③ |--④-|
5
④口③口 |--①-|
②口⑤③ |②-③-|
口口①⑤ |--④-|
①口口口 |--⑤-|
6
口②②④ |--①-|
④⑤口口 |--②-|
①⑥⑦口 |--③-|
①③③口 |④⑤⑥⑦|
7
①③口口 |①-②-|
⑥⑥②④ |③-④-|
③口口④ |--⑤-|
⑤⑤口② |--⑥-|
8
①⑤①⑥ |--①-|
口⑦⑦口 |②-③-|
口④口② |④-⑤-|
口⑤③⑥ |⑥-⑦-|
9
④口③口 |--①-|
②口⑤③ |②-③-|
口口①⑤ |--④-|
①口口口 |--⑤-|
10
口②②④ |--①-|
④⑤口口 |--②-|
①⑥⑦口 |--③-|
①③③口 |④⑤⑥⑦|
11
①③口口 |①-②-|
⑥⑥②④ |③-④-|
③口口④ |--⑤-|
⑤⑤口② |--⑥-|
12
④③②① |①-②-|
口口口口 |③-④-|
口口口口
口口口口

口口口⑧
⑦口⑥⑤
⑦⑤口⑦ |⑤-⑥-|
⑦口⑥口 |⑦-⑧-|
13
④④口口 |--①-|
⑥①⑥口 |②-③-|
口⑥②口 |④-⑤-|
⑤口口③ |--⑥-|
14
口口①口 |--①-|
口②口③ |②-③-|
⑥⑦口口 |④-⑤-|
口④口⑤ |--⑥⑦|
15
口口④① |①---|
口⑤④③ |②-③-|
口⑤①③ |--④-|
②口②口 |--⑤-|
16
口口口① |--①-|
②口口口 |②-③-|
③口⑥⑤ |④---|
口口口④ |--⑤⑥|
17
①口口口 |①---|
②口②口 |②-③-|
口①口口
口③口口

⑤⑤口口
口口口口
口口口口 |--④-|
④口④口 |--⑤-|
18
口口①口 |--①-|
④③②① |②-③-|
⑤口③口 |--④-|
⑥口口口 |⑤-⑥-|
19
口口口② |①---|
口口口② |②---|
口口口口
口①①口

④口口口
④口口口
口③③口 |③---|
口⑥⑤口 |④-⑤⑥|
20
口③口③ |①--②|
口口①口 |--③-|
口口口口
①口口②

口口⑨口
⑤口⑧口
口④⑦④ |④-⑤-|
口口⑥口 |⑥⑦⑧⑨|
21
⑤③口③ |①---|
④②口① |②---|
⑤④口口 |③-④-|
口①口② |--⑤-|
22
口口②③ |--①-|
口口③① |--②-|
口口口② |--③-|
④⑤口口 |--④⑤|
23
口口口口 |①---|
口口口① |②---|
②口口②
口口①口

③③口口
口⑤口⑤
口④④口 |③-④-|
口⑤口⑤ |--⑤-|
24
口口④④ |--①-|
⑥口①口 |②-③-|
②口⑤⑤ |--④-|
口口③口 |⑤-⑥-|
25
④①③口 |①---|
口①口② |②---|
③①口口 |③---|
口①⑥⑤ |④-⑤⑥|
26
口口④口 |①-②-|
②⑦①⑤ |③-④-|
⑧③⑥口 |⑤-⑥-|
口①口口 |⑦-⑧-|
27
②③③① |①---|
⑤口口⑤ |②---|
口口口口 |③-④-|
②④④① |--⑤-|
28
①③③① |--①-|
口②②⑤ |②-③-|
④④④④ |④---|
⑥④口④ |⑤---⑥-|
29
口口口口 |①---|
①口∨口
口口┃口
口口①口

②∨③③
口┃口口 |②---|
口③口口 |③---|
口口②口

口口口口
口口口⑤
口④口口
口口口口 |④---⑤-|
30
口口口口 |①---②-|
口口①口
口口┃口
②口∧口

口④口口
口┃③口 |③---|
口∧口口 |④---|
口③④④

口⑤口⑤
口口口口
口口口口
口口口口 |⑤---|
31
口口口口 |①---|
①②③口 |②---|
口口③口 |③---|
①②③口

口④口⑤
口口口┃
口口口┃
⑤口口∧ |④---⑤-|
32
口口口③ |----①-|
①②口④ |②---|
③③口口 |③---|
⑤口口口 |④---⑤-|
33
口口口口 |①---|
①口∨口
口口┃口
口口①口

②∨③③
口┃口口 |②---|
口③口口 |③---|
口口②口

口口口口
口口口⑤
口④口口
口口口口 |④---⑤-|
34
口口口口 |①---②-|
口口①口
口口┃口
②口∧口

口④口口
口┃③口 |③---|
口∧口口 |④---|
口③④④

口⑤口⑤
口口口口
口口口口
口口口口 |⑤---|
35
口口口口 |①---|
①②③口 |②---|
口口③口 |③---|
①②③口

口④口⑤
口口口┃
口口口┃
⑤口口∧ |④---⑤-|
36
口⑤⑤② |----①-|
口③⑤口 |②---|
①②口口 |③-④-|
口④口口 |--⑤-|
37
④⑥口口 |--①-|
①口口口 |②-③-|
⑤②口⑤ |④-⑤-|
口口③⑥ |--⑥-|
38
口⑥⑥④ |--①-|
口口口① |②-③-|
⑤口②⑤ |④-⑤-|
口③口口 |--⑥-|
39
⑤口口⑤ |①---|
②③③① |②---|
④口口④ |③-④-|
②②①① |--⑤-|
40
口④口口 |--①-|
口⑤⑤③ |②-③-|
口②⑥⑥ |④---|
①口①口 |⑤-⑥-|
41
口口口口 |①---|
∨口口口
①口口口
口①<口

口口口口
口口口口 |②---|
②②口口
口②口口

口>③口
口口口③
口口口∧ |③---|
口口口口

口口④口
口口④④
口口口口
口口口口 |④---|
42
口①<口 |①---|
①口口口
∧口口口
口口口口

③②口③
②②口口 |②---|
⑤口口口 |③-④-|
④口口④ |--⑤-|
43
口口③口 |--①-|
④③⑤③ |②-③-|
口④②⑤ |--④-|
口口①口 |-⑤--|
44
①①口口 |①-②-|
┃┃口④ |③-④-|
┃┃③口
∧∧口②

⑦⑦⑤⑥
⑩口⑧口
口⑨口⑦ |⑤-⑥-|
口口口口 |⑦⑧⑨⑩|
45
⑦⑥⑤④ |①--②|
┃③口③ |--③-|
∧口⑦口 |④-⑤-|
①①②② |⑥-⑦-|
46
①口④口 |----|
口④①① |①---|
②④口① |②---|
②②口③ |③-④-|
47
⑥①⑤① |--①-|
⑥口②口 |②-③-|
③口④② |--④-|
口③口口 |⑤-⑥-|
48
口口口口 |--①-|
口口口口 |②-③-|
口口口①
口③②口

口⑤口口
口口口∨
口⑤口┃ |④-⑤-|
口口口④

口口口⑦
⑥⑥口⑦
口口口口
口口口⑥ |⑥-⑦-|
49
口口口口 |--①-|
口口口口 |②-③-|
①口口口
口②③口

口口⑤口
∨口⑥⑥
┃口⑤口 |④-⑤-|
④口口口

口口口⑦
口口口┃
口口口∧
⑥口口口 |⑥-⑦-|
50
口①口① |----|
①口④④ |①---|
口①②② |②---|
③口②口 |③-④-|
51
①④口④ |--①-|
口②口口 |②-③-|
口④③④ |④---|
⑤⑥口口 |--⑤⑥|
52
②④口④ |①-②-|
口口③① |③-④-|
口口③口
口口①口

口口口∨
口⑤口┃
⑤口口⑥ |--⑤-|
口口口口 |--⑥-|
53
口口口口 |①--②|
①口③口 |--③-|
口口口③
口②口口

④⑤⑥⑦
口口口┃
口⑦口∧ |④-⑤-|
⑥口④口 |⑥-⑦-|
54
③口④① |----|
①①口④ |①---|
①口口② |②---|
口口②② |③-④-|
55
口口口⑥ |--①-|
③④③⑥ |②-③-|
①③②口 |--④-|
③口③⑤ |⑤-⑥-|
56
口口口口 |--①-|
口口口口 |②-③-|
①口口口
口②③口

口口⑤口
∨口口口
┃口⑤口 |④-⑤-|
④口口口

⑦口口口
⑦口⑥⑥
口口口口
⑥口口口 |⑥-⑦-|
57
口口口口 |--①-|
口口口口 |②-③-|
口口口①
口③②口

口⑤口口
⑥⑥口∨
口⑤口┃ |④-⑤-|
口口口④

⑦口口口
┃口口口
∧口口口
口口口⑥ |⑥-⑦-|
58
①口口① |----|
④④①① |①---|
口②口③ |②---|
②②口口 |③-④-|
59
④口④① |--①-|
口口②口 |②-③-|
④③④口 |④---|
口口⑥⑤ |--⑤⑥|
60
口口④口 |①-②-|
①④⑤② |③-④-|
口口口⑤ |--⑤-|
③①口口

口口口⑥
口口口┃
口口口┃
口口口∧ |--⑥-|
61
口口口口 |①---|
②②口口 |②---|
①①①口
口口口口

③④口⑤
口口④口
⑥口口口 |③-④-|
口⑤⑤口 |⑤-⑥-|
62
④口③口 |--①-|
②口⑤③ |②-③-|
口口①⑤ |--④-|
①口口口 |--⑤-|
63
口②②④ |--①-|
④⑤口口 |--②-|
①⑥⑦口 |--③-|
①③③口 |④⑤⑥⑦|
64
①③口口 |①-②-|
⑥⑥②④ |③-④-|
③口口④ |--⑤-|
⑤⑤口② |--⑥-|
65
①⑤①⑥ |--①-|
口⑦⑦口 |②-③-|
口④口② |④-⑤-|
口⑤③⑥ |⑥-⑦-|
66
④口③口 |--①-|
②口⑤③ |②-③-|
口口①⑤ |--④-|
①口口口 |--⑤-|
67
口②②④ |--①-|
④⑤口口 |--②-|
①⑥⑦口 |--③-|
①③③口 |④⑤⑥⑦|
68
④⑥③口 |①-②-|
⑧口⑦① |③-④-|
②口口⑤ |⑤-⑥-|
口口口口 |⑦-⑧-|
69
⑦⑥⑤④ |①--②|
┃③口③ |--③-|
∧口⑦口 |④-⑤-|
①①②② |⑥-⑦-|
70
③口口口 |①-②-|
口口④③ |③-④-|
口①口③
口口②口

口口⑧口
⑥口口口
口⑧口口 |⑤-⑥-|
⑤⑤口⑦ |⑦-⑧-|
71
⑧②⑦② |①-②-|
⑧①③⑤ |③-④-|
④口⑥③ |⑤-⑥-|
口④口口 |⑦-⑧-|
72
口口口① |①-②-|
口口口口 |③-④-|
口口口②
口④③口

口⑥口口
口口口∨
口⑥口┃ |⑤-⑥-|
口口口⑤

口口口⑧
⑦⑦口⑧
口口口口
口口口⑦ |⑦-⑧-|

73
①口口口 |①-②-|
口口口口 |③-④-|
②口口口
口③④口

口口⑥口
∨口口口
┃⑦⑥口 |⑤-⑥⑦|
⑤口口口

口口口口
口口⑧⑧
口口口口
⑧口口口 |⑧-|

口口口⑨
口口口┃
口口口∧
口口口口 |⑨-|
74
①③口③ |①-②-|
③②⑧⑧ |③-④-|
口⑥口⑤ |⑤-⑥-|
⑦④⑤口 |⑦-⑧-|
75
②⑤⑥⑤ |①-②-|
⑦③口口 |③-④-|
①⑤④⑤ |⑤-⑥-|
⑧⑨口口 |⑦-⑧⑨|
76
②④口④ |①-②-|
口口③① |③-④-|
口口③口
口口①口

口口⑤∨
口⑥口┃
⑥⑦口⑧ |⑤-⑥-|
口口口口 |⑦-⑧-|
77
口口口口 |①--②|
①口③口 |--③-|
口口口③
口②口口

④⑤⑥⑦
口口口┃
口⑦口∧ |④-⑤-|
⑥口④口 |⑥-⑦-|
78
⑦口⑧③ |①-②-|
③④口⑥ |③-④-|
③口①⑧ |⑤-⑥-|
口②⑤⑤ |⑦-⑧-|
79
口⑤口⑧ |①-②-|
④⑥④⑧ |③-④-|
②④③口 |⑤-⑥-|
④①④⑦ |⑦-⑧-|
80
①口口口 |①-②-|
口口口口 |③-④-|
②口口口
口③④口

口口⑥口
∨口口口
┃口⑥口 |⑤-⑥-|
⑤口口口

⑧口口口
⑧口⑦⑦
口口口口
⑦口口口 |⑦-⑧-|
81
口口口① |①-②-|
口口口口 |③-④-|
口口口②
口④③口

口⑥口口
口口口∨
口⑥⑦┃ |⑤-⑥⑦|
口口口⑤

口口口口
⑧⑧口口
口口口口
口口口⑧ |⑧-|

⑨口口口
┃口口口
∧口口口
口口口口 |⑨-|
82
③口①③ |①-②-|
⑧⑧③② |③-④-|
口⑤口口 |⑤-⑥-|
⑤⑥④⑦ |⑦-⑧-|
83
⑤⑥⑤② |①-②-|
口口③① |③-④-|
⑤④⑤⑦ |⑤-⑥-|
口口⑨⑧ |⑦-⑧⑨|
84
⑤口④口 |①-②-|
①④⑥② |③-④-|
口口口⑥ |⑤-⑥-|
③①口口

口口口⑧
口口口┃
口⑦口┃
口口口∧ |⑦-⑧-|
85
口①口口 |①-②-|
口口口口 |③-④-|
④口③口
②口口口

⑤⑩⑩⑧
⑥⑦⑧⑨
口口口口 |⑤-⑥⑦|
口口口口 |⑧⑨⑩-|
86
口口口口 |①-②-|
口口口口 |③-④-|
④③口②
③①①④

口口⑦⑥
⑤口⑥口
口口口口 |⑤-⑥-|
口⑧口口 |⑦-⑧-|
87
①口口口 |①---|
┃口口口 |----|
┃口①口
∧口口口

③④口④
口②④②
口④口口 |②-③-|
口口③③ |--④-|
88
④口③口 |--①-|
②口⑤③ |②-③-|
口⑤①⑤ |--④-|
①口口口 |--⑤-|
89
口②②④ |--①-|
④⑤口口 |--②-|
①⑥⑦口 |--③-|
①③③① |④⑤⑥⑦|
90
①③口口 |①-②-|
⑥⑥②④ |③-④-|
③口口④ |--⑤-|
⑤⑤口② |--⑥-|
91
①⑤①⑥ |--①-|
口⑦⑦口 |②-③-|
口④口② |④-⑤-|
口⑤③⑥ |⑥-⑦-|
92
④口③口 |--①-|
②口⑤③ |②-③-|
口⑤①⑤ |--④-|
①口口口 |--⑤-|
93
口②②④ |--①-|
④⑤口口 |--②-|
①⑥⑦口 |--③-|
①③③① |④⑤⑥⑦|
94
①口⑤口 |①-②-|
⑥口口② |③-④-|
③⑧口口 |⑤-⑥-|
口口⑦④ |⑦-⑧-|
95
口①口口 |①---|
口口①口 |②---|
口口口①
②②口口

④口口③
④④口⑤
⑤⑥⑦⑧ |③-④-|
口口口⑤ |⑤⑥⑦⑧|
96
口①①口 |①---|
口┃┃口 |----|
口┃┃口 |----|
口∧∧口 |----|
97
口口口口 |----|
口口口口 |----|
口口口口 |----|
口口口口 |----|
98
口①①口 |①---|
口口口口 |----|
口口口口 |----|
口口口口 |----|
最終更新:2019年12月11日 15:11