アットウィキロゴ
POSSESSION
TAG underground

BASIC

Level: 5
BPM: 185
Notes: 488

1
口口口口 |----|
口口口口 |----|
口口口口 |----|
口口口口 |----|
2
口②①口 |①---|
口④③口 |②---|
口口口口 |③---|
口口口口 |④---|
3
口口口口 |①---|
口口口口 |②---|
口②①口 |③---|
口④③口 |④---|
4
口口口口 |①---|
口口口口 |②---|
④③②① |③---|
口口口口 |④---|
5
①口口口 |①---|
口②口口 |②---|
口口③口 |③---|
口口口④ |④---|
6
口①②口 |①---|
口③④口 |②---|
口口口口 |③---|
口口口口 |④---|
7
口口口口 |①---|
口口口口 |②---|
口①②口 |③---|
口③④口 |④---|
8
口口口口 |①---|
口口口口 |②---|
①②③④ |③---|
口口口口 |④---|
9
口口口① |①---|
口口②口 |②---|
口③口口 |③---|
④口口口 |④---|
10
口②①口 |①---|
口④③口 |②---|
口口口口 |③---|
口口口口 |④---|
11
口口口口 |①---|
口口口口 |②---|
口②①口 |③---|
口④③口 |④---|
12
口口口口 |①---|
口口口口 |②---|
④③②① |③---|
口口口口 |④---|
13
①口口口 |①---|
口②口口 |②---|
口口③口 |③---|
口口口④ |④---|
14
口①②口 |①---|
口③④口 |②---|
口口口口 |③---|
口口口口 |④---|
15
口口口口 |①---|
口口口口 |②---|
口①②口 |③---|
口③④口 |④---|
16
口口口口 |①---|
口口口口 |②---|
①②③④ |③---|
口口口口 |④---|
17
口口口口 |①---|
①②③④ |②---|
口口口口 |③---|
口口口口 |④---|
18
口①①口 |①---|
口口口口 |--②-|
口②②口 |----|
口口口口 |----|
19
口①①口 |----|
口口口口 |----|
口口口口 |----|
口口口口 |--①-|
20
②口口② |①---|
口①①口 |--②-|
口口口口 |----|
口口口口 |----|
21
口口口口 |----|
口②①口 |----|
口②①口 |①---|
口口口口 |②---|
22
口②口① |①---|
口④口③ |②---|
口口口口 |③---|
口口口口 |④---|
23
口口口口 |①---|
口口口口 |②---|
口②口① |③---|
口④口③ |④---|
24
口口口口 |①---|
①口②口 |②---|
③口④口 |③---|
口口口口 |④---|
25
口口口口 |①---|
④口口④ |②---|
③口口③ |③---|
①口②口 |④---|
26
口口①口 |①-②-|
口②口口 |③---|
④⑤③口 |④---|
口口口口 |⑤---|
27
③③口口 |①---|
口口②① |②---|
④④口口 |③---|
口口口口 |④---|
28
口口口口 |①-②-|
口①口口 |③---|
口口②口 |④---|
口③⑤④ |⑤---|
29
口口口口 |①---|
④④口口 |②---|
①②口口 |③---|
③③口口 |④---|
30
口①口口 |①-②-|
口口②口 |③---|
口③⑤④ |④---|
口口口口 |⑤---|
31
口口③③ |①---|
①②口口 |②---|
口口④④ |③---|
口口口口 |④---|
32
口口口口 |①-②-|
口口①口 |③---|
口②口口 |④---|
④⑤③口 |⑤---|
33
口口口口 |①---|
口③③口 |②---|
口口②① |③---|
④口口④ |-④--|
34
①②③口 |①---②-|
④⑤⑥口 |--③---|
口口口口 |④---⑤-|
口口口口 |--⑥---|
35
口口口口 |①---②-|
口口口口 |--③---|
①②③口 |④---⑤-|
④⑤⑥口 |--⑥---|
36
口①②③ |①---②-|
口④⑤⑥ |--③---|
口口口口 |④---⑤-|
口口口口 |--⑥---|
37
口口口口 |①---②-|
口口口口 |--③---|
口①②③ |④---⑤-|
口④⑤⑥ |--⑥---|
38
①②③口 |①---②-|
④⑤⑥口 |--③---|
口口口口 |④---⑤-|
口口口口 |--⑥---|
39
口口口口 |①---②-|
口口口口 |--③---|
①②③口 |④---⑤-|
④⑤⑥口 |--⑥---|
40
口①②③ |①---②-|
口④⑤⑥ |--③---|
口口口口 |④---⑤-|
口口口口 |--⑥---|
41
口口口口 |①---②-|
口口口口 |--③---|
①②③④ |④---|
口口口口 |----|
42
①②口口 |①---|
③④口口 |②---|
口口口口 |③---|
口口口口 |④---|
43
口口口口 |①---|
口口口口 |②---|
①②口口 |③---|
③④口口 |④---|
44
口口①② |①---|
口口③④ |②---|
口口口口 |③---|
口口口口 |④---|
45
口口口口 |①---|
口口口口 |②---|
口口①② |③---|
口口③④ |④---|
46
①①②② |①---|
③③④④ |②---|
口口口口 |③---|
口口口口 |④---|
47
口口口口 |①---|
口口口口 |②---|
①①②② |③---|
③③④④ |④---|
48
口口口口 |①-②-|
①②③④ |③-④-|
⑤⑥⑦⑧ |⑤-⑥-|
口口口口 |⑦-⑧-|
49
口口口口 |①---|
口口口口 |----|
口口口口 |----|
口①①口 |----|
50
口口①口 |①-②-|
口②口口 |③---|
④⑤③口 |④---|
口口口口 |⑤---|
51
口口①口 |①-②-|
口②④④ |③---|
口口③口 |④---|
口口⑤⑤ |⑤---|
52
口口①口 |①-②-|
口②口口 |③---|
④⑤③口 |④---|
口口口口 |⑤---|
53
⑤⑤口口 |①-②-|
口①④④ |③---|
口口②口 |④---|
口③口口 |⑤---|
54
口口口口 |①-②-|
口①口口 |③---|
口口②口 |④---|
口③⑤④ |⑤---|
55
④④①口 |①-②-|
口②口口 |③---|
⑤⑤③口 |④---|
口口口口 |⑤---|
56
口口口口 |①-②-|
口①口口 |③---|
口口②口 |④---|
口③⑤④ |⑤---|
57
⑤⑤①口 |①-②-|
口②口口 |③---|
④④③口 |④---|
口口口口 |⑤---|
58
口口口口 |①-②-|
④①口口 |③---|
口⑤②⑥ |④-⑤-|
口③口口 |--⑥-|
59
③③口① |--①-|
口口②口 |②---|
④④口口 |③---|
口口口口 |④---|
60
口口口口 |①-②-|
④①口口 |③---|
口⑤②⑥ |④-⑤-|
口③口口 |--⑥-|
61
④④口① |--①-|
口口②口 |②---|
③③口口 |③---|
口口口口 |④---|
62
口口①④ |①-②-|
⑥②⑤口 |③---|
口口③口 |④-⑤-|
口口口口 |--⑥-|
63
③③口口 |--①-|
口口④④ |②---|
口②口口 |③---|
①口口口 |④---|
64
口口①④ |①-②-|
⑥②⑤口 |③---|
口口③口 |④-⑤-|
口口口口 |--⑥-|
65
口口口口 |--①-|
口口口口 |②---|
④②口④ |③---|
①③③口 |④---|
66
①②③口 |①---②-|
④⑤⑥口 |--③---|
口口口口 |④---⑤-|
口口口口 |--⑥---|
67
口口口口 |①---②-|
口口口口 |--③---|
①②③口 |④---⑤-|
④⑤⑥口 |--⑥---|
68
口①②③ |①---②-|
口④⑤⑥ |--③---|
口口口口 |④---⑤-|
口口口口 |--⑥---|
69
口口口口 |①---②-|
口口口口 |--③---|
口①②③ |④---⑤-|
口④⑤⑥ |--⑥---|
70
①②③口 |①---②-|
①②③口 |--③---|
④⑤⑥口 |④---⑤-|
④⑤⑥口 |--⑥---|
71
口①②③ |①---②-|
口①②③ |--③---|
口④⑤⑥ |④---⑤-|
口④⑤⑥ |--⑥---|
72
①②③口 |①---②-|
①②③口 |--③---|
④⑤⑥口 |④---⑤-|
④⑤⑥口 |--⑥---|
73
口①②③ |①---②-|
口①②③ |--③---|
口④⑤⑥ |④---⑤-|
口④⑤⑥ |--⑥---|
74
①①口口 |①---②-|
②②④④ |--③---|
③③⑤⑤ |④---⑤-|
口口⑥⑥ |--⑥---|
75
口口④④ |①---②-|
①①⑤⑤ |--③---|
②②⑥⑥ |④---⑤-|
③③口口 |--⑥---|
76
①①口口 |①---②-|
②②④④ |--③---|
③③⑤⑤ |④---⑤-|
口口⑥⑥ |--⑥---|
77
口口④④ |①---②-|
①①⑤⑤ |--③---|
②②⑥⑥ |④---⑤-|
③③口口 |--⑥---|
78
①①③③ |①---②-|
④④⑥⑥ |--③---|
②②口口 |④---⑤-|
⑤⑤口口 |--⑥---|
79
①①口口 |①---②-|
④④口口 |--③---|
②②⑤⑤ |④---⑤-|
⑥⑥③③ |--⑥---|
80
①①③③ |①---②-|
④④⑥⑥ |--③---|
②②口口 |④---⑤-|
⑤⑤口口 |--⑥---|
81
①②③④ |①---②-|
口口口口 |--③---|
口口口口 |④---|
口口口口 |----|
82
口口口口 |①---|
口①①口 |----|
口①①口 |----|
口口口口 |----|

accuracy: 100%
最終更新:2022年04月30日 04:42