アットウィキロゴ
POSSESSION
TAG underground

ADVANCED

Level: 9.7
BPM: 185
Notes: 790

1
口口口口 |----|
口口口口 |----|
口口口口 |----|
口口口口 |----|
2
口②③口 |①---|
④口口口 |②---|
④口口② |③-④-|
口①①口 |----|
3
①口②① |①---|
口③口② |--②-|
口口③口 |--③-|
④口口④ |--④-|
4
①口口① |----|
口②口口 |①---|
口③口口 |②---|
口口口口 |③---|
5
口③③口 |①---|
①口口① |②-③-|
口口②口
口口口口

口口口口
⑥⑤④口
口口口口 |--④-|
口口口口 |⑤-⑥-|
6
口③②口 |①---|
口口口④ |②---|
②口口④ |③-④-|
口①①口 |----|
7
①②口① |①---|
②口③口 |--②-|
口③口口 |--③-|
④口口④ |--④-|
8
①口口① |----|
口口②口 |①---|
口口③口 |②---|
口口口口 |③---|
9
口③③口 |①---|
①口口① |②-③-|
口②口口
口口口口

口口口口
口④⑤⑥
口口口口 |--④-|
口口口口 |⑤-⑥-|
10
口②③口 |①---|
④口口口 |②---|
④口口② |③-④-|
①①①口 |----|
11
①口②① |①---|
口口口② |--②-|
③口口口 |--③-|
④③口④ |--④-|
12
①①①① |----|
口②口口 |①---|
口③口口 |②---|
口口口口 |③---|
13
口③③口 |①---|
①口口① |②-③-|
口口②口
口口口口

口口口口
⑥⑤④口
口口口口 |--④-|
口口口口 |⑤-⑥-|
14
口③②口 |①---|
口口口④ |②---|
②口口④ |③-④-|
口①①① |----|
15
①②口① |①---|
②口口口 |--②-|
口口口③ |--③-|
④口③④ |--④-|
16
口口口口 |----|
口②口口 |①---|
②①①口 |--②-|
口口口口 |----|
17
③②③口 |①---|
②口①口 |--②-|
口口口① |--③-|
口口口口 |----|
18
⑦④⑦④ |①-②-|
⑤⑤②口 |③-④-|
口③口① |⑤-⑥-|
⑥⑥口口 |--⑦-|
19
口口⑥③ |--①-|
口口④① |②---|
口⑤口口 |③-④-|
⑥口②口 |⑤-⑥-|
20
④⑦口⑦ |①-②-|
口②⑤⑤ |③-④-|
③口①口 |⑤-⑥-|
口口⑥⑥ |--⑦-|
21
⑥口⑤口 |--①-|
①口口⑤ |②---|
④口口③ |③-④-|
口②③口 |⑤-⑥-|
22
口①⑦① |①-②-|
⑤⑤②⑦ |③-④-|
口③⑥⑥ |⑤-⑥-|
④口口口 |--⑦-|
23
①口口口 |--①-|
口③口口 |②---|
④②⑥⑥ |③-④-|
口⑤口口 |⑤-⑥-|
24
④⑦①① |①-②-|
口口②⑤ |③-④-|
⑧③口口 |⑤-⑥-|
口⑧⑥口 |⑦-⑧-|
25
口⑥③③ |--①-|
①①⑥口 |②---|
口④②② |③-④-|
⑤口⑤口 |⑤-⑥-|
26
①口⑤口 |①-②-|
③口口② |③---|
④口③口 |④-⑤-|
⑥口⑦⑦ |⑥-⑦-|
27
①③口口 |①-②-|
③口②口 |③---|
④口口⑤ |④-⑤-|
⑥口口⑦ |⑥-⑦-|
28
①口⑤口 |①-②-|
③口口② |③---|
④口③口 |④-⑤-|
⑥口⑦⑦ |⑥-⑦-|
29
①③⑦口 |①-②-|
③⑦②口 |③---|
④口⑤口 |④-⑤-|
⑥⑥口口 |⑥-⑦-|
30
口⑤口① |①-②-|
②口口③ |③---|
口③口④ |④-⑤-|
⑦⑦口⑥ |⑥-⑦-|
31
口口③① |①-②-|
口②口③ |③---|
⑤口口④ |④-⑤-|
⑦口口⑥ |⑥-⑦-|
32
口⑤口① |①-②-|
②口口③ |③---|
口③口④ |④-⑤-|
⑦⑦口⑥ |⑥-⑦-|
33
口口③① |①-②-|
⑤②口③ |③---|
口口口④ |④-⑤-|
⑦口⑥⑥ |⑥-⑦-|
34
①②③口 |①---②-|
口④⑤⑥ |--③---|
①②③口 |④---⑤-|
口④⑤⑥ |--⑥---|
35
①①③⑥ |①---②-|
④口⑤口 |--③---|
口③②② |④---⑤-|
⑤口④⑥ |--⑥---|
36
①②③口 |①---②-|
口④⑤⑥ |--③---|
①②③口 |④---⑤-|
口④⑤⑥ |--⑥---|
37
①①③口 |①---②-|
口口口口 |--③---|
口③②②
口口口口

⑥口口口
口⑤⑤口
口口口口 |④---⑤-|
⑥④④口 |--⑥---|
38
口①③② |①---②-|
④⑥⑤口 |--③---|
口②③① |④---⑤-|
⑤⑥④口 |--⑥---|
39
①①③口 |①---②-|
口口口口 |--③---|
口③②②
口口口口

⑥口口口
④口④口
口口口口 |④---⑤-|
⑥⑤口⑤ |--⑥---|
40
口①③② |①---②-|
④⑥⑤口 |--③---|
口②③① |④---⑤-|
⑤⑥④口 |--⑥---|
41
②④④② |①---②-|
④口口④ |--③---|
①③③① |④---|
口口口口 |----|
42
②口口② |①---|
口④口④ |②---|
口口口口 |--③-|
口①口③ |④---|
43
②口口② |①---|
④口④口 |②---|
口口口口 |--③-|
③口①口 |④---|
44
口口②② |①---|
④④口口 |②---|
口①口口 |--③-|
口口③口 |④---|
45
②②口口 |①---|
口口④④ |②---|
口口①口 |--③-|
口③口口 |④---|
46
⑦口口⑧ |①-②-|
⑤口口⑥ |③-④-|
③口口④ |⑤-⑥-|
①口口② |⑦-⑧-|
47
口①②口 |①-②-|
口③④口 |③-④-|
口⑤⑥口 |⑤-⑥-|
口⑦⑧口 |⑦-⑧-|
48
①②③④ |①②③④|
⑤⑥⑦⑧ |⑤⑥⑦⑧|
⑨⑩⑪⑫ |⑨⑩⑪⑫|
⑬⑭⑮⑯ |⑬⑭⑮⑯|
49
①①口② |①---|
口口口② |--②-|
③口⑤口 |③--④|
口④口口 |--⑤-|
50
①④①口 |①-②-|
③口③⑥ |③-④-|
⑤⑧⑧② |⑤-⑥-|
⑦口⑤口 |⑦-⑧-|
51
①口②口 |①-②-|
③④口⑤ |③---|
④口口③ |④-⑤-|
⑥⑥口⑦ |⑥-⑦-|
52
①④①口 |①-②-|
③口③⑥ |③-④-|
⑤⑧⑧② |⑤-⑥-|
⑦口⑤口 |⑦-⑧-|
53
①口②口 |①-②-|
③口③口 |③---|
④⑥⑦⑤ |④-⑤-|
⑥口口口 |⑥-⑦-|
54
口①④① |①-②-|
⑥②口③ |③-④-|
口⑧⑧⑤ |⑤-⑥-|
口⑤③⑦ |⑦-⑧-|
55
口②口① |①-②-|
⑤口④③ |③---|
③口口④ |④-⑤-|
⑦口⑥⑥ |⑥-⑦-|
56
口①④① |①-②-|
⑥③口③ |③-④-|
②⑧⑧⑤ |⑤-⑥-|
口⑤口⑦ |⑦-⑧-|
57
⑦②④① |①-②-|
⑤④口③ |③---|
③口口⑥ |④-⑤-|
口口⑥口 |⑥-⑦-|
58
口④⑨⑤ |①②③-|
⑦⑦口⑨ |④-⑤-|
③②①⑧ |⑥-⑦-|
⑥⑥口口 |⑧-⑨-|
59
口④⑧⑥ |①②③-|
⑧口⑥口 |④-⑤-|
①②③⑨ |⑥-⑦-|
⑦⑦⑤⑨ |⑧-⑨-|
60
口④⑨⑨ |①②③-|
⑦⑦⑤口 |④-⑤-|
③②①⑧ |⑥-⑦-|
⑥⑥口口 |⑧-⑨-|
61
⑨④口⑨ |①②③-|
口⑥⑦⑥ |④-⑤-|
①②③口 |⑥-⑦-|
⑧⑧⑤⑦ |⑧-⑨-|
62
口⑨④口 |①②③-|
⑨⑤⑦⑦ |④-⑤-|
⑧①②③ |⑥-⑦-|
口口⑥⑥ |⑧-⑨-|
63
⑥⑧④口 |①②③-|
口⑥口⑧ |④-⑤-|
⑨③②① |⑥-⑦-|
⑨⑤⑦⑦ |⑧-⑨-|
64
口⑨④口 |①②③-|
⑨⑤⑦⑦ |④-⑤-|
⑧①②③ |⑥-⑦-|
口口⑥⑥ |⑧-⑨-|
65
口口④口 |①②③-|
口口口口 |④-⑤-|
口③②①
口⑤口口

口口口口
口⑥口⑥
口口口⑨ |⑥-⑦-|
⑧口⑦⑦ |⑧-⑨-|
66
①②③口 |①---②-|
口④⑤⑥ |--③---|
①②③口 |④---⑤-|
口④⑤⑥ |--⑥---|
67
①①③⑥ |①---②-|
④口⑤口 |--③---|
口③②② |④---⑤-|
⑤口④⑥ |--⑥---|
68
①②③口 |①---②-|
口④⑤⑥ |--③---|
①②③口 |④---⑤-|
口④⑤⑥ |--⑥---|
69
①①③口 |①---②-|
口口口口 |--③---|
口③②②
口口口口

⑥口口口
口⑤⑤口
口口口口 |④---⑤-|
⑥④④口 |--⑥---|
70
口①③① |①---②-|
口口口③ |--③---|
②③②口
口口口口

口口口⑥
④⑥④口
口口口⑥ |④---⑤-|
口⑤口⑤ |--⑥---|
71
①①口⑥ |①---②-|
③⑤③② |--③---|
⑤③②口 |④---⑤-|
④口④⑥ |--⑥---|
72
①③①口 |①---②-|
③口口口 |--③---|
口②③②
口口口口

⑥口口口
口④⑥④
⑥口口口 |④---⑤-|
⑤口⑤口 |--⑥---|
73
⑥口①① |①---②-|
②③⑤③ |--③---|
口②③⑤ |④---⑤-|
⑥④口④ |--⑥---|
74
口口①① |①---②-|
⑥⑦⑧口 |③-④---|
②③④口 |⑤---⑥-|
口口⑤⑤ |⑦-⑧---|
75
①①③⑥ |①---②-|
口⑤口② |--③---|
④④口③ |④---⑤-|
口②⑤⑥ |--⑥---|
76
①①口口 |①---②-|
口⑧⑦⑥ |③-④---|
口④③② |⑤---⑥-|
⑤⑤口口 |⑦-⑧---|
77
⑥③①① |①---②-|
②口口⑤ |--③---|
③口⑤口 |④---⑤-|
⑥④②④ |--⑥---|
78
口⑤③① |①-②-③-|
⑦④口口 |④-⑤---|
⑨②口口 |⑥-⑦-⑧-|
⑩⑧⑥口 |⑨-⑩---|
79
②②①⑥ |①---②-|
④④口⑤ |--③---|
口口①③ |④---⑤-|
口⑤③⑥ |--⑥---|
80
①③⑤口 |①-②-③-|
口口④⑦ |④-⑤---|
口口②⑨ |⑥-⑦-⑧-|
口⑥⑧⑩ |⑨-⑩---|
81
④①③④ |①---②-|
①④④口 |--③---|
③②②口 |④---|
口口口口 |----|
82
口口口口 |①---|
口口口口 |----|
口口口口 |----|
①①①① |----|

accuracy: 100%
最終更新:2022年04月30日 16:48