アットウィキロゴ
POSSESSION
TAG underground

EXTREME

Level: 10.6
BPM: 185
Notes: 904

1
口口口口 |----|
口口口口 |----|
口口口口 |----|
口口口口 |----|
2
口②④口 |①---|
②④口口 |②---|
口口⑤③ |③-④-|
口①①口 |⑤---|
3
①口口① |①---|
⑥口⑤③ |②-③-|
口④⑦⑦ |④-⑤-|
②口⑤③ |⑥-⑦-|
4
②口③② |①---|
口口口口 |②---|
口④口④ |③---|
口①口口 |④---|
5
口④口口 |①---|
口①⑤⑤ |②-③-|
②⑥口口 |④-⑤-|
①③⑦⑦ |⑥-⑦-|
6
②口②⑤ |①---|
口④口口 |②---|
④口口③ |③-④-|
①口口口 |⑤---|
7
⑤③口口 |①---|
⑦⑦⑥② |②-③-|
⑤③口口 |④-⑤-|
①口④① |⑥-⑦-|
8
口②④② |①---|
口口口口 |②---|
口口口④ |③---|
口③口① |④---|
9
⑥口口④ |①---|
③①⑦⑤ |②-③-|
①③⑦⑤ |④-⑤-|
口口口② |⑥-⑦-|
10
口②④口 |①---|
②④口口 |②---|
口口⑤③ |③-④-|
口①①口 |⑤---|
11
①口口① |①---|
⑥口⑤③ |②-③-|
口④⑦⑦ |④-⑤-|
②口⑤③ |⑥-⑦-|
12
②口③② |①---|
口口口口 |②---|
口④口④ |③---|
口①口口 |④---|
13
口④口口 |①---|
口①⑤⑤ |②-③-|
②⑥口口 |④-⑤-|
①③⑦⑦ |⑥-⑦-|
14
②口②⑤ |①---|
口④口口 |②---|
④口口③ |③-④-|
①口口口 |⑤---|
15
⑤③口口 |①---|
⑦⑦⑥② |②-③-|
⑤③口口 |④-⑤-|
①口④① |⑥-⑦-|
16
口②④② |①---|
口口口④ |②---|
口口口口 |③-④-|
③⑤口① |⑤---|
17
①③口③ |①---|
口①口口 |②-③-|
⑤④⑤② |④-⑤-|
口⑥⑥口 |⑥---|
18
④④⑦⑦ |①-②-|
④口②⑤ |③-④-|
口口口③ |⑤-⑥-|
①口⑥① |--⑦-|
19
口口⑥⑥ |--①-|
⑤④③口 |②---|
①口口口 |③-④-|
口②口口 |⑤-⑥-|
20
⑤⑦口口 |①-②-|
⑦口⑥④ |③-④-|
②③④口 |⑤-⑥-|
①口①① |--⑦-|
21
③⑤⑤口 |--①-|
⑥口口口 |②---|
口②④① |③-④-|
⑤③③口 |⑤-⑥-|
22
口⑦⑦③ |①-②-|
口口①① |③-④-|
⑤②口口 |⑤-⑥-|
口⑥④④ |--⑦-|
23
口口口③ |--①-|
口③⑤① |②---|
⑥⑥②④ |③-④-|
口口④口 |⑤-⑥-|
24
口④口口 |①-②-|
②口口① |③-④-|
口口④口
①①口③

⑤口⑦口
口口⑥⑧
口⑦口口 |⑤-⑥-|
口口口口 |⑦-⑧-|
25
口③⑤口 |--①-|
口①口⑥ |②---|
口④口② |③-④-|
①⑤③口 |⑤-⑥-|
26
①口口口 |①-②-|
③口②口 |③-④⑤|
口⑤①③
口口④口

口口⑦口
口口口口
⑥口⑨口 |⑥-⑦-|
⑧口口口 |⑧-⑨-|
27
①口⑦口 |①-②-|
③口⑨② |③-④⑤|
⑥⑤口口 |⑥-⑦-|
⑧口④③ |⑧-⑨-|
28
⑦②口① |①-②-|
③①口③ |③-④⑤|
口⑨⑤⑥ |⑥-⑦-|
口④口⑧ |⑧-⑨-|
29
口口③① |①-②-|
口②口③ |③-④⑤|
口口⑤口
口④口口

口口口⑨
⑧口口口
口口口⑥ |⑥-⑦-|
⑦口口⑧ |⑧-⑨-|
30
①③⑥⑧ |①-②-|
口⑤②口 |③-④⑤|
③④口⑦ |⑥-⑦-|
口⑨①口 |⑧-⑨-|
31
①③⑥⑧ |①-②-|
⑧⑤⑨② |③-④⑤|
口④②⑦ |⑥-⑦-|
口口口口 |⑧-⑨-|
32
②口⑨口 |①-②-|
口④口③ |③-④⑤|
⑦⑤①口 |⑥-⑦-|
①③⑥⑧ |⑧-⑨-|
33
口口口⑨ |①-②-|
②④口⑨ |③-④⑤|
⑦⑤⑧③ |⑥-⑦-|
①③⑥⑧ |⑧-⑨-|
34
①②③⑥ |①---②-|
口④⑤口 |--③---|
口④⑤口 |④---⑤-|
①②③⑥ |--⑥---|
35
口①口⑤ |①---②-|
③④⑥① |--③---|
②⑤口④ |④---⑤-|
口③②⑥ |--⑥---|
36
①②③⑥ |①---②-|
口④⑤口 |--③---|
口④⑤口 |④---⑤-|
①②③⑥ |--⑥---|
37
⑥①口口 |①---②-|
③④⑤① |--③---|
②⑥口④ |④---⑤-|
⑤③②口 |--⑥---|
38
⑥③②① |①---②-|
口⑤④口 |--③---|
口⑤④口 |④---⑤-|
⑥③②① |--⑥---|
39
⑤口①口 |①---②-|
①⑥④③ |--③---|
④口⑤② |④---⑤-|
⑥②③口 |--⑥---|
40
⑥③②① |①---②-|
口⑤④口 |--③---|
口⑤④口 |④---⑤-|
⑥③②① |--⑥---|
41
⑥④①④ |①---②-|
③⑦⑤① |--③---|
②④⑧④ |④-⑤-|
口②③⑨ |⑥⑦⑧⑨|
42
口④①口 |①-②-|
④口口① |③-④-|
口口口口
②口③口

口口口⑦
口⑦口⑧
口⑥口⑤ |⑤-⑥-|
口口口口 |⑦-⑧-|
43
②口⑤⑧ |①-②-|
③⑦②⑧ |③-④-|
⑦⑥口⑤ |⑤-⑥-|
④口⑥① |⑦-⑧-|
44
①①⑦口 |①-②-|
⑦口④口 |③-④-|
口口⑧④ |⑤-⑥-|
⑤③⑥② |⑦-⑧-|
45
⑧②⑥⑥ |①-②-|
⑧⑤口② |③-④-|
①③⑦④ |⑤-⑥-|
⑤⑦口口 |⑦-⑧-|
46
⑧⑦口口 |①-②-|
口⑦②① |③-④-|
⑥⑤口③ |⑤-⑥-|
口口④③ |⑦-⑧-|
47
口口②① |①-②-|
⑧⑦口口 |③-④-|
口⑦④③ |⑤-⑥-|
⑥⑤口③ |⑦-⑧-|
48
⑮⑯②① |①②③④|
⑬⑭④③ |⑤⑥⑦⑧|
⑪⑫⑥⑤ |⑨⑩⑪⑫|
⑨⑩⑧⑦ |⑬⑭⑮⑯|
49
口口①① |①---|
口口⑤① |--②③|
④口②⑤ |④--⑤|
⑥③⑥口 |--⑥-|
50
①②③⑧ |①②③-|
④⑨口① |④-⑤⑥|
⑦⑥⑤口 |⑦-⑧-|
⑨口⑩④ |⑨-⑩-|
51
①②③口 |①②③-|
④⑨口① |④-⑤⑥|
⑦⑥⑤口 |⑦-⑧-|
⑨④⑩⑧ |⑨-⑩-|
52
①③②① |①②③-|
口⑨口④ |④-⑤⑥|
⑩⑤⑥⑦ |⑦-⑧-|
⑧④口⑨ |⑨-⑩-|
53
①③②① |①②③-|
口口口④ |④-⑤⑥|
口⑤⑥口
口口④口

口口口⑩
口口⑧口
口口口⑦ |⑦-⑧-|
⑨口口⑨ |⑨-⑩-|
54
①④口口 |①②③-|
②①⑥④ |④-⑤⑥|
③口⑤口
口口口口

口口⑦⑨
口⑩口口
口⑦口口 |⑦-⑧-|
⑨口⑧口 |⑨-⑩-|
55
①④口口 |①②③-|
②口⑥④ |④-⑤⑥|
③口⑤①
口口口口

⑩口⑦⑨
口⑨口口
口⑦口口 |⑦-⑧-|
口口口⑧ |⑨-⑩-|
56
⑩口口⑧ |①②③-|
③⑨⑤④ |④-⑤⑥|
②⑦⑥① |⑦-⑧-|
①④⑦⑨ |⑨-⑩-|
57
⑨⑩⑨⑧ |①②③-|
③口⑤④ |④-⑤⑥|
②⑦⑥① |⑦-⑧-|
①④⑦口 |⑨-⑩-|
58
⑫口⑧口 |①②③-|
③⑪⑤口 |④-⑤⑥|
②⑥⑩口 |⑦-⑧-|
①④⑦⑨ |⑨⑩⑪⑫|
59
口②⑨⑦ |①②③-|
③口⑥④ |④-⑤⑥|
⑨⑤口① |⑦-⑧-|
⑦⑩⑧口 |⑨-⑩-|
60
④①口口 |①②③-|
口⑥⑤口 |④-⑤⑥|
口口③②
口口口口

口⑪口⑧
⑦口口⑩
⑨口口口 |⑦-⑧-|
口口口⑫ |⑨⑩⑪⑫|
61
③口⑧口 |①②③-|
⑤⑦⑩口 |④-⑤⑥|
⑨⑥②口 |⑦-⑧-|
①④⑦⑨ |⑨-⑩-|
62
②③⑨⑦ |①②③-|
口⑩口④ |④-⑤⑥|
⑧⑤⑪① |⑦-⑧-|
口⑫⑥口 |⑨⑩⑪⑫|
63
④①⑨⑦ |①②③-|
⑦口②⑤ |④-⑤⑥|
⑨⑧⑩③ |⑦-⑧-|
口口⑥口 |⑨-⑩-|
64
口口口口 |①②③-|
⑤③②口 |④-⑤⑥|
口⑥口口
①④口口

口口⑧口
口⑫口口
⑩口⑪口 |⑦-⑧-|
口口⑦⑨ |⑨⑩⑪⑫|
65
③⑦⑩⑦ |①②③-|
⑧口②④ |④-⑤⑥|
口⑥⑨① |⑦-⑧-|
⑤口口⑨ |⑨-⑩-|
66
口口口③ |①---②-|
口口②口 |--③---|
②③口①
口口①口

④⑤⑥口
口口口口
口口口口 |④---⑤-|
④⑤⑥口 |--⑥---|
67
口⑥⑤④ |①---②-|
②①③口 |--③---|
①口②口 |④---⑤-|
③⑥⑤④ |--⑥---|
68
④⑥⑤口 |①---②-|
口①③① |--③---|
②口②口 |④---⑤-|
④⑥⑤③ |--⑥---|
69
口口口① |①---②-|
口②口口 |--③---|
③①③②
口口口口

口⑤④⑥
口口口口
口口口口 |④---⑤-|
口⑤④⑥ |--⑥---|
70
①⑤口口 |①---②-|
④⑦②口 |③-④---|
⑧③⑥口 |⑤---⑥-|
①⑤口口 |⑦-⑧---|
71
口口①⑤ |①---②-|
口⑥③⑧ |③-④---|
口②⑦④ |⑤---⑥-|
口口①⑤ |⑦-⑧---|
72
①⑤口口 |①---②-|
④⑦②口 |③-④---|
⑧③⑥口 |⑤---⑥-|
①⑤口口 |⑦-⑧---|
73
口口①⑤ |①---②-|
口⑥③⑧ |③-④---|
口②⑦④ |⑤---⑥-|
口口①⑤ |⑦-⑧---|
74
口①①口 |①-②-③-|
②口④口 |④-⑤-⑥-|
口③口⑤
口口⑥口

⑧⑨口口
口⑦口口
⑦口口口 |⑦---⑧-|
⑨⑧口口 |--⑨---|
75
口口口口 |①-②-③-|
②口⑤③ |④-⑤-⑥-|
口④①⑥
口口口①

口口⑨⑧
口口口口
⑦口口口 |⑦---⑧-|
口⑦⑧⑨ |--⑨---|
76
口①口口 |①-②-③-|
③①口② |④-⑤-⑥-|
⑥⑤④口
口口口口

⑧⑨口口
口口⑦口
口口口⑦ |⑦---⑧-|
⑨⑧口口 |--⑨---|
77
口口口口 |①-②-③-|
②④口① |④-⑤-⑥-|
⑤口③⑥
口口口①

口口⑨⑧
口口口口
口⑦口口 |⑦---⑧-|
口⑦⑧⑨ |--⑨---|
78
①口口口 |①-②-③-|
口④口② |④-⑤-⑥-|
⑤口③⑥
①口口口

口⑦口⑨
⑧口⑩⑫
口口口口 |⑦-⑧-⑨-|
⑪⑦口口 |⑩-⑪-⑫-|
79
②口①口 |①-②-③-|
口④口口 |④-⑤-⑥-|
口口③⑤
口⑥①口

口口口⑦
⑧口⑨⑪
口⑩口口 |⑦-⑧-⑨-|
口口⑫⑦ |⑩-⑪-⑫-|
80
①口②口 |①-②-③-|
口⑤口口 |④-⑤-⑥-|
③口⑥④
①口口口

⑪⑦口⑧
⑨口口⑩
口⑫口口 |⑦-⑧-⑨-|
口⑦口口 |⑩-⑪-⑫-|
81
口口①口 |①---②-|
口口②口 |--③---|
③口③口
②口①口

口口口④
⑥口口⑦
口口口⑤ |④-⑤-|
口⑧⑨④ |⑥⑦⑧⑨|
82
①①①口 |①---|
口①口口 |----|
口①口口 |----|
口口口口 |----|

accuracy: 100%
最終更新:2022年04月30日 17:20