アットウィキロゴ
In Your EyEs
kors k

BASIC

Level: 5
BPM: 180
Notes: 386

1
口口口口 |----|
口口口口 |----|
口口口口 |----|
口口口口 |----|
2
③③③③ |①---|
口口口口 |----|
口②②口 |②---|
①口口① |③---|
3
口口口口 |①---|
口口①口 |----|
口②口口 |②---|
口口口口 |----|
4
口口口口 |①---|
口口口口 |----|
口口口口 |----|
①口口口 |----|
5
口口口口 |①---|
口①口口 |----|
口口②口 |②---|
口口口口 |----|
6
口口口口 |①---|
口口口口 |----|
口口口口 |----|
口口口① |----|
7
口口口口 |①---|
口口①口 |----|
口②口口 |②---|
口口口口 |----|
8
口口口口 |①---|
口口口口 |----|
口口口口 |----|
①口口口 |----|
9
口口口口 |①---|
口①口口 |----|
口口②口 |②---|
口口口口 |----|
10
口口口口 |①---|
口口口口 |----|
口口口口 |②---|
②口口① |----|
11
口口口口 |①---|
口④②口 |②---|
口③①口 |③---|
口口口口 |④---|
12
口口口口 |①---|
④口口② |②---|
③口口① |③---|
口口口口 |④---|
13
④③②① |①---|
口口口口 |②---|
口口口口 |③---|
口口口口 |④---|
14
口口口口 |①---|
口②①口 |②---|
口④③口 |③---|
口口口口 |④---|
15
口口口口 |①---|
口口口口 |②---|
④口口③ |③---|
②口口① |④---|
16
④口口③ |①---|
②口口① |②---|
口口口口 |③---|
口口口口 |④---|
17
口口①口 |①---|
口②口口 |②---|
口口③口 |③---|
口④口口 |④---|
18
口①口口 |①---|
口口②口 |②---|
口③口口 |③---|
口口④口 |④---|
19
口口口口 |①---|
①①口口 |----|
口口口口 |----|
口口口口 |----|
20
口口口口 |①---|
口口①① |----|
口口口口 |----|
口口口口 |----|
21
口口口口 |①---|
口口口口 |----|
①①口口 |----|
口口口口 |----|
22
口口口口 |①---|
口口口口 |----|
口口①① |----|
口口口口 |----|
23
口口口口 |①---|
口口口口 |----|
口口口口 |②---|
①①②② |----|
24
口口口口 |①---|
口口口口 |----|
①①②② |②---|
口口口口 |----|
25
③③④④ |①---|
①①②② |②---|
口口口口 |③---|
口口口口 |④---|
26
③③③③ |①---|
口口口口 |----|
口②②口 |②---|
①口口① |③---|
27
口口口口 |①---|
口①③口 |②---|
口口口口 |③---|
口④②口 |④---|
28
①口口④ |①---|
口口口口 |②---|
③口口② |③---|
口口口口 |④---|
29
口①④口 |①---|
口口口口 |②---|
口③②口 |③---|
口口口口 |④---|
30
①②③口 |①---|
口口口口 |--②-|
口口口口 |----|
口口口口 |③---|
31
口口口口 |①---|
口①④口 |②---|
口口口口 |③---|
口③②口 |④---|
32
①口口④ |①---|
口口口口 |②---|
③口口② |③---|
口口口口 |④---|
33
口①④口 |①---|
口口口口 |②---|
口③②口 |③---|
口口口口 |④---|
34
口口口口 |①---|
口①①口 |----|
口口口口 |----|
口口口口 |----|
35
口口口口 |①---|
口①④口 |②---|
口口口口 |③---|
口③②口 |④---|
36
①②③口 |①---|
口口口口 |--②-|
口口口口 |----|
口口口口 |③---|
37
口口口口 |①---|
口①④口 |②---|
口口口口 |③---|
口③②口 |④---|
38
①口口④ |①---|
口口口口 |②---|
③口口② |③---|
口口口口 |④---|
39
口口口口 |①---|
口①④口 |②---|
口口口口 |③---|
口③②口 |④---|
40
①口口④ |①---|
口口口口 |②---|
③口口② |③---|
口口口口 |④---|
41
口④④口 |①---|
口③③口 |②---|
口②②口 |③---|
口①①口 |④---|
42
①口口口 |①--②|
口口口② |--③-|
③⑤口口 |-④--|
口口口④ |⑤---|
43
①①口口 |①--②|
口口口④ |--③-|
口⑤口口 |-④--|
③口②口 |⑤---|
44
口口①① |①--②|
口口口口 |--③-|
④口⑤口 |-④--|
口②口③ |⑤---|
45
口口口口 |①--②|
①①口口 |--③-|
口⑤口④ |-④--|
③口②口 |⑤---|
46
口口口口 |①--②|
④口①① |--③-|
口口⑤口 |-④--|
口②口③ |⑤---|
47
①①口口 |①--②|
口口口④ |--③-|
口⑤口口 |-④--|
③口②口 |⑤---|
48
口口①① |①--②|
口口口口 |--③-|
④口⑤口 |-④--|
口②口③ |⑤---|
49
口口口口 |①--②|
①①口口 |--③-|
口⑤口④ |-④--|
③口②口 |⑤---|
50
口口口口 |①--②|
④口①① |--③-|
口口⑤口 |-④--|
口②口③ |⑤---|
51
①①口口 |①--②|
口口口④ |--③-|
口⑤口口 |-④--|
③口②口 |⑤---|
52
口口①① |①--②|
口口口口 |--③-|
④口⑤口 |-④--|
口②口③ |⑤---|
53
口口口口 |①--②|
①①口口 |--③-|
口⑤口④ |-④--|
③口②口 |⑤---|
54
口口口口 |①--②|
④口①① |--③-|
口口⑤口 |-④--|
口②口③ |⑤---|
55
①①④④ |①--②|
口口口口 |--③-|
口口口口 |④--⑤|
③⑤②⑥ |--⑥-|
56
①①④④ |①--②|
口口口口 |--③-|
口口口口 |④--⑤|
③⑤②⑥ |--⑥-|
57
口口口口 |①---|
③①①③ |②---|
④②②④ |③---|
口口口口 |④---|
58
③③③③ |①---|
口口口口 |----|
口②②口 |②---|
①口口① |③---|
59
口口口口 |①---|
口口口口 |----|
口②口口 |②---|
①口口口 |----|
60
口口口② |①---|
口口①口 |----|
口口口口 |②---|
口口口口 |----|
61
口口口口 |①---|
口口口口 |----|
口口②口 |②---|
口口口① |----|
62
②口口口 |①---|
口①口口 |----|
口口口口 |②---|
口口口口 |----|
63
口口口口 |①---|
口口口口 |----|
②口口口 |②---|
口①口口 |----|
64
口②口口 |①---|
①口口口 |----|
口口口口 |②---|
口口口口 |----|
65
口口口口 |①---|
口口口口 |----|
口口口② |②---|
口口①口 |----|
66
口口②口 |①---|
口口口① |----|
口口口口 |②---|
口口口口 |----|
67
口口口口 |①---|
口口口口 |②---|
④③口口 |③---|
①②口口 |④---|
68
口口口口 |①---|
口口口口 |②---|
口口④③ |③---|
口口①② |④---|
69
④③口口 |①---|
①②口口 |②---|
口口口口 |③---|
口口口口 |④---|
70
口口④③ |①---|
口口①② |②---|
口口口口 |③---|
口口口口 |④---|
71
口口口口 |①---|
口口口口 |----|
①口口口 |----|
口口口口 |----|
72
口口口口 |①---|
口②口口 |----|
口口口① |②---|
口口口口 |----|
73
口④④口 |①---|
口③③口 |②---|
口②②口 |③---|
口①①口 |④---|
74
口口口口 |①---|
①口口① |----|
口口口口 |----|
口口口口 |----|
75
口口④④ |①---|
口口口口 |②---|
口①口口 |③---|
口③②口 |④---|
76
口口口口 |①---|
①口④④ |②---|
③口口② |③---|
口口口口 |④---|
77
④④口口 |①---|
口口口口 |②---|
口②③口 |③---|
口口①口 |④---|
78
口口口口 |①---|
④④口① |②---|
②口口③ |③---|
口口口口 |④---|
79
口口④④ |①---|
口口口口 |②---|
口①口口 |③---|
口③②口 |④---|
80
口口口口 |①---|
①口④④ |②---|
③口口② |③---|
口口口口 |④---|
81
④④口口 |①---|
口口口口 |②---|
口②③口 |③---|
口口①口 |④---|
82
口口口口 |①---|
④④①① |②---|
口口口口 |③---|
②②③③ |④---|
83
④④口口 |①---|
口口口口 |②---|
口口①口 |③---|
口②③口 |④---|
84
口口口口 |①---|
④④口① |②---|
②口口③ |③---|
口口口口 |④---|
85
口口④④ |①---|
口口口口 |②---|
口③②口 |③---|
口①口口 |④---|
86
口口口口 |①---|
①口④④ |②---|
③口口② |③---|
口口口口 |④---|
87
①口口② |①---|
③口口④ |②---|
口口口口 |③---|
口口口口 |④---|
88
口口口口 |①---|
口口口口 |②---|
①口口② |③---|
③口口④ |④---|
89
口①①口 |①---|
口②②口 |②---|
口③③口 |③---|
口④④口 |④---|
90
口口口口 |①---|
①口口① |----|
口②③口 |②---|
口口口口 |③---|
91
①①①① |①---|
口口口口 |----|
口口口口 |----|
口口口口 |----|

accuracy: 100%
最終更新:2022年03月26日 03:23