アットウィキロゴ
In Your EyEs
kors k

ADVANCED

Level: 7
BPM: 180
Notes: 605

1
口口口口 |----|
口口口口 |----|
口口口口 |----|
口口口口 |----|
2
④④④④ |①---|
口③③口 |②---|
口②②口 |③---|
口①①口 |④---|
3
口口口口 |①-②-|
①口④② |--③-|
口口口口 |----|
口③口口 |④---|
4
①口口② |--①-|
口口口口 |----|
口口口口 |②---|
口③口口 |③---|
5
②口④③ |①-②-|
口口①口 |--③-|
口⑤⑥口 |④---|
口口口口 |⑤-⑥-|
6
口③口口 |①-②-|
口口口④ |--③-|
口口口口 |----|
口①②口 |④---|
7
口③④口 |①---|
口⑤②口 |--②-|
①口口口 |③---|
口口口口 |④-⑤-|
8
③口③① |--①-|
口口口口 |--②-|
口口口口 |----|
口口口② |③---|
9
口口口口 |①---|
口①口① |②---|
②④②口 |③---|
口③口③ |--④-|
10
口②⑤口 |①-②-|
口④①口 |----|
口口③口 |③-④-|
口口口口 |⑤---|
11
⑤⑥口口 |①-②-|
①口④② |--③-|
口口口口 |④---|
口③口口 |⑤-⑥-|
12
口口口② |--①-|
口口口口 |----|
口口口口 |②---|
口③口① |③---|
13
②口④③ |①-②-|
口口①口 |--③-|
口⑤⑥口 |④---|
口口口口 |⑤-⑥-|
14
口③口口 |①-②-|
口口口④ |--③-|
口口口口 |----|
口①②口 |④---|
15
口③④口 |①---|
口⑤②口 |--②-|
①口口口 |③---|
口口口口 |④-⑤-|
16
③口③① |--①-|
口口口口 |--②-|
口口口口 |----|
口口口② |③---|
17
口口口口 |①---|
口①口① |②---|
②④②口 |③---|
口③口③ |--④-|
18
口②⑤口 |①-②-|
口④①口 |----|
口口③口 |③-④-|
口口口口 |⑤---|
19
口口④③ |①---|
口口③④ |②---|
口②口口 |③---|
口口口① |④---|
20
③④口口 |①---|
④③口口 |②---|
口口②口 |③---|
①口口口 |④---|
21
口口④③ |①---|
口口③④ |②---|
口②口口 |③---|
口口口① |④---|
22
③④口口 |①---|
④③口口 |②---|
口口②口 |③---|
①口口口 |④---|
23
口口④③ |①---|
口口③④ |②---|
口②口口 |③---|
口口口① |④---|
24
③④口口 |①---|
④③口口 |②---|
口口②口 |③---|
①口口口 |④---|
25
口口④③ |①---|
口口③④ |②---|
口②口口 |③---|
口口口① |④---|
26
④④④④ |①---|
口③③口 |②---|
口②②口 |③---|
口①①口 |④---|
27
口口口口 |①-②-|
④⑤口口 |③---|
⑤④口口 |④---|
①②③口 |⑤---|
28
口③②① |①-②-|
口口⑤④ |③---|
口口④⑤ |④---|
口口口口 |⑤---|
29
口口口口 |①-②-|
③④⑤口 |③---|
②⑤④口 |④---|
①口口口 |⑤---|
30
口②口① |①---|
口口③口 |--②-|
口口口口 |----|
口口口口 |③---|
31
口口口口 |①-②-|
口口⑤④ |③---|
口口④⑤ |④---|
口③②① |⑤---|
32
①②③口 |①-②-|
④⑤口口 |③---|
⑤④口口 |④---|
口口口口 |⑤---|
33
口口口口 |①-②-|
口⑤④③ |③---|
口④⑤② |④---|
口口口① |⑤---|
34
⑦口口⑧ |①-②-|
⑤口口⑥ |③-④-|
③口口④ |⑤-⑥-|
①口口② |⑦-⑧-|
35
口口口口 |①-②-|
④⑤口口 |③---|
⑤④口口 |④---|
①②③口 |⑤---|
36
口②口① |①---|
口口③口 |--②-|
口口口口 |----|
口口口口 |③---|
37
口口口口 |①-②-|
③④⑤口 |③---|
②⑤④口 |④---|
①口口口 |⑤---|
38
口口口① |①-②-|
口④⑤② |③---|
口⑤④③ |④---|
口口口口 |⑤---|
39
口口口口 |①-②-|
口口⑤④ |③---|
口口④⑤ |④---|
口③②① |⑤---|
40
①②③口 |①-②-|
④⑤口口 |③---|
⑤④口口 |④---|
口口口口 |⑤---|
41
④口口口 |①-②-|
⑤口口③ |③---|
⑥口口② |④-⑤-|
口口口① |⑥---|
42
④口口① |①--②|
口⑥⑤口 |--③-|
口⑥⑤口 |-④--|
②口口③ |⑤-⑥-|
43
④口①① |①--②|
④口⑤口 |--③-|
口⑤口② |-④--|
③③口② |⑤---|
44
④④口① |①--②|
口口⑤① |--③-|
③⑤口口 |-④--|
③口②② |⑤---|
45
口④④口 |①--②|
③口⑤① |--③-|
③⑤口① |-④--|
口②②口 |⑤---|
46
③口④④ |①--②|
③口⑤口 |--③-|
口⑤口① |-④--|
②②口① |⑤---|
47
③③口④ |①--②|
口口⑤④ |--③-|
②⑤口口 |-④--|
②口①① |⑤---|
48
口③③口 |①--②|
②口⑤④ |--③-|
②⑤口④ |-④--|
口①①口 |⑤---|
49
②口③③ |①--②|
②口口口 |--③-|
口⑤⑤④ |-④--|
①①口④ |⑤---|
50
口①口口 |①--②|
口⑤④② |--③-|
口⑦⑥口 |④-⑤-|
③口口口 |⑥-⑦-|
51
④口①① |①--②|
④口⑤口 |--③-|
口⑤口② |-④--|
③③口② |⑤---|
52
④④口① |①--②|
口口⑤① |--③-|
③⑤口口 |-④--|
③口②② |⑤---|
53
口④④口 |①--②|
③口⑤① |--③-|
③⑤口① |-④--|
口②②口 |⑤---|
54
③口④④ |①--②|
③口⑤口 |--③-|
口⑤口① |-④--|
②②口① |⑤---|
55
口①④口 |①--②|
口口口口 |--③-|
①⑤⑥④ |④--⑤|
口③②口 |--⑥-|
56
口①④口 |①--②|
口口口口 |--③-|
①⑤⑥④ |④--⑤|
口③②口 |--⑥-|
57
口①口② |①---|
口③④② |②---|
①口口口 |③-④-|
⑤口口⑥ |⑤-⑥-|
58
④④④④ |①---|
口③③口 |②---|
口②②口 |③---|
口①①口 |④---|
59
口口口口 |①---|
口口口口 |----|
口口口口 |②---|
①口口② |----|
60
口口口口 |①---|
口①②口 |----|
口口口口 |②---|
口口口口 |----|
61
①口口② |①---|
口口口口 |----|
口口口口 |②---|
口口口口 |----|
62
口口口口 |①---|
口口口口 |----|
口①②口 |②---|
口口口口 |----|
63
口口口口 |①---|
口口口口 |----|
口口口口 |②---|
①口口② |----|
64
口口口口 |①---|
口①②口 |----|
口口口口 |②---|
口口口口 |----|
65
①口口② |①---|
口口口口 |----|
口口口口 |②---|
口口口口 |----|
66
口口口口 |①---|
口口口口 |----|
口①②口 |②---|
口口口口 |----|
67
口口口口 |①---|
口口口口 |②---|
③口口④ |③---|
①口口② |④---|
68
③口口④ |①---|
①口口② |②---|
口口口口 |③---|
口口口口 |④---|
69
口口口口 |①---|
口口口口 |②---|
口③④口 |③---|
口①②口 |④---|
70
口③④口 |①---|
口①②口 |②---|
口口口口 |③---|
口口口口 |④---|
71
①口口① |①---|
口②⑤口 |②-③-|
⑥④③⑦ |④-⑤-|
口口口口 |⑥-⑦-|
72
④口口④ |①---|
⑤②口口 |②-③-|
口口③⑥ |④---|
口①①口 |⑤-⑥-|
73
⑦口口⑧ |①-②-|
口③④口 |③-④-|
口⑤⑥口 |⑤-⑥-|
①口口② |⑦-⑧-|
74
口②②口 |①---|
口②②口 |----|
口②②口 |----|
口①①口 |②---|
75
①口口口 |①-②-|
口口口② |③-④-|
③口口口
口口口④

⑧⑧口⑤
⑥口口口
口口口⑦ |⑤-⑥-|
口口口口 |⑦-⑧-|
76
⑦⑦⑤口 |--①-|
口④口① |②-③-|
口⑥③口 |④-⑤-|
口②口口 |⑥-⑦-|
77
口口⑤① |①-②-|
②⑥口口 |③-④-|
口口⑦③ |⑤-⑥-|
④⑧口口 |⑦-⑧-|
78
口②⑦口 |--①-|
口⑥③口 |②-③-|
口①口⑤ |④-⑤-|
口口④口 |⑥-⑦-|
79
①口口口 |①-②-|
口口口② |③-④-|
③口口口
口口口④

⑧⑧口⑤
⑥口口口
口口口⑦ |⑤-⑥-|
口口口口 |⑦-⑧-|
80
⑦⑦⑤口 |--①-|
口④口① |②-③-|
口⑥③口 |④-⑤-|
口②口口 |⑥-⑦-|
81
口口⑤① |①-②-|
②⑥口口 |③-④-|
口口⑦③ |⑤-⑥-|
④⑧口口 |⑦-⑧-|
82
①①口④ |①--②|
③⑤⑥口 |--③-|
口⑤⑥④ |④---|
③口②② |⑤-⑥-|
83
①口口口 |①-②-|
口口口② |③-④-|
③口口口
口口口④

⑧⑧口⑤
⑥口口口
口口口⑦ |⑤-⑥-|
口口口口 |⑦-⑧-|
84
⑦⑦⑤口 |--①-|
口④口① |②-③-|
口⑥③口 |④-⑤-|
口②口口 |⑥-⑦-|
85
口口⑤① |①-②-|
②⑥口口 |③-④-|
口口⑦③ |⑤-⑥-|
④⑧口口 |⑦-⑧-|
86
口②⑦口 |--①-|
口⑥③口 |②-③-|
口①口⑤ |④-⑤-|
口口④口 |⑥-⑦-|
87
②口口口 |①-②-|
口口口口 |③-④-|
④口③口
①①口口

口⑤口口
口⑦口口
口口口⑥ |⑤-⑥-|
⑧口口口 |⑦-⑧-|
88
口口①① |①-②-|
④口口口 |③-④-|
口口口口
口口②③

⑦口口⑧
口口⑥口
口口口⑤ |⑤-⑥-|
口口口口 |⑦-⑧-|
89
⑦⑦⑧⑧ |①-②-|
⑤⑤⑥⑥ |③-④-|
③③④④ |⑤-⑥-|
①①②② |⑦-⑧-|
90
口口口口 |①---|
②口口③ |----|
口口口口 |②---|
口①①口 |③---|
91
口①①口 |①---|
口①①口 |----|
口①①口 |----|
口口口口 |----|

accuracy: 100%
最終更新:2022年03月26日 03:23