アットウィキロゴ
In Your EyEs
kors k

EXTREME

Level: 10.5
BPM: 180
Notes: 981

1
口口口口 |----|
口口口口 |----|
口口口口 |----|
口口口口 |----|
2
①口④④ |①---|
②③③口 |②---|
③④②② |③---|
④①①口 |④---|
3
口②口口 |①-②-|
④口口口 |--③-|
口口口③ |----|
口口①口 |④---|
4
口口口① |--①-|
口口口口 |----|
口④③口 |②---|
②⑥⑤口 |③④⑤⑥|
5
③②④⑤ |①-②-|
②③⑤④ |--③-|
⑥口口口 |④---|
口⑥口① |⑤-⑥-|
6
③口口口 |①-②-|
口口口口 |--③-|
口①②④ |----|
①口口② |④---|
7
口口④① |①---|
口③⑤口 |--②-|
口口口口 |③---|
口口②口 |④-⑤-|
8
①口口③ |①-②-|
②口口口 |--③-|
④口口口 |----|
④口口口 |④---|
9
口④口③ |①---|
④①②③ |②---|
口①②口 |③---|
口口口口 |--④-|
10
①口③④ |①-②-|
口①④③ |----|
口口口口 |③-④-|
⑤口口② |⑤---|
11
④②④口 |①-②-|
口⑥⑤口 |--③-|
口⑤⑥③ |④---|
口口①口 |⑤-⑥-|
12
口①口① |--①-|
口口口口 |----|
口④③口 |②---|
②⑥⑤口 |③④⑤⑥|
13
③②④⑤ |①-②-|
②③⑤④ |--③-|
⑥口口口 |④---|
口⑥口① |⑤-⑥-|
14
③口口口 |①-②-|
口口口口 |--③-|
口①②④ |----|
①口口② |④---|
15
口口④① |①---|
口③⑤口 |--②-|
口口口口 |③---|
口口②口 |④-⑤-|
16
①口口③ |①-②-|
②口口口 |--③-|
④口口口 |----|
④口口口 |④---|
17
口④口③ |①---|
④①②③ |②---|
口①②口 |③---|
口口口口 |--④-|
18
①口③④ |①-②-|
口①④③ |----|
口口口口 |③-④-|
⑤口口② |⑤---|
19
③④口口 |①---|
口口⑥⑤ |②-③④|
⑦②②⑧ |-⑤⑥-|
口口①① |⑦-⑧-|
20
口口④③ |①---|
⑤⑥口口 |②-③④|
⑧②②⑦ |-⑤⑥-|
①①口口 |⑦-⑧-|
21
③④口口 |①---|
口口⑥⑤ |②-③④|
⑦②②⑧ |-⑤⑥-|
口口①① |⑦-⑧-|
22
口口④③ |①---|
⑤⑥口口 |②-③④|
⑧②②⑦ |-⑤⑥-|
①①口口 |⑦-⑧-|
23
③④口口 |①---|
口口⑥⑤ |②-③④|
⑦②②⑧ |-⑤⑥-|
口口①① |⑦-⑧-|
24
口口④③ |①---|
⑤⑥口口 |②-③④|
⑧②②⑦ |-⑤⑥-|
①①口口 |⑦-⑧-|
25
②口⑤口 |①②③④|
⑧口口口 |⑤⑥⑦⑧|
口口⑦口
⑥④③①

口⑭口⑨
口⑩⑪⑬
⑫⑯口口 |⑨⑩⑪⑫|
口口口⑮ |⑬⑭⑮⑯|
26
①口④④ |①---|
②③③口 |②---|
③④②② |③---|
④①①口 |④---|
27
①②⑦⑥ |①---|
②口③④ |②-③④|
⑤口口⑧ |⑤⑥⑦-|
⑧⑨口① |⑧-⑨-|
28
①②⑦⑥ |①---|
②口③④ |②-③④|
⑤口口⑧ |⑤⑥⑦-|
⑧⑨口① |⑧-⑨-|
29
①②⑦⑥ |①---|
②口③④ |②-③④|
⑤口口⑧ |⑤⑥⑦-|
⑧⑨口① |⑧-⑨-|
30
①口⑤③ |①---|
②①口③ |②-③-|
④①⑤口 |④---|
⑤口口口 |⑤---|
31
①②⑦⑥ |①---|
②口③④ |②-③④|
⑤口口⑧ |⑤⑥⑦-|
⑧⑨口① |⑧-⑨-|
32
①②⑦⑥ |①---|
②口③④ |②-③④|
⑤口口⑧ |⑤⑥⑦-|
⑧⑨口① |⑧-⑨-|
33
①②⑦⑥ |①---|
②口③④ |②-③④|
⑤口口⑧ |⑤⑥⑦-|
⑧⑨口① |⑧-⑨-|
34
①②⑨口 |①-②③|
⑤⑩③⑥ |④-⑤⑥|
⑦④⑪口 |⑦-⑧-|
口⑫⑧① |⑨⑩⑪⑫|
35
①③⑧⑦ |①-②-|
③口④⑤ |③-④⑤|
⑥②口⑨ |⑥⑦⑧-|
⑨⑩口① |⑨-⑩-|
36
①口⑤③ |①---|
②①口③ |②-③-|
④①⑤口 |④---|
⑤口口口 |⑤---|
37
①③⑧⑦ |①-②-|
③口④⑤ |③-④⑤|
⑥②口⑨ |⑥⑦⑧-|
⑨⑩口① |⑨-⑩-|
38
①③⑧⑦ |①-②-|
③口④⑤ |③-④⑤|
⑥②口⑨ |⑥⑦⑧-|
⑨⑩口① |⑨-⑩-|
39
①③⑧⑦ |①-②-|
③口④⑤ |③-④⑤|
⑥②口⑨ |⑥⑦⑧-|
⑨⑩①① |⑨-⑩-|
40
①③⑧⑦ |①-②-|
③口④⑤ |③-④⑤|
⑥②口⑨ |⑥⑦⑧-|
⑨⑩①① |⑨-⑩-|
41
①口⑤⑤ |①-②-|
③③④⑧ |③-④-|
⑤②⑥⑦ |⑤-⑥-|
⑦口①① |⑦-⑧-|
42
②①③④ |①--②|
口⑤⑥口 |--③-|
口⑥⑤口 |-④--|
④①③② |⑤-⑥-|
43
①⑦口④ |①--②|
③⑨⑧① |③-④⑤|
⑥⑧⑨⑤ |⑥⑦--|
⑧口②② |⑧-⑨-|
44
①⑦①④ |①--②|
③⑧⑧口 |③-④⑤|
⑥⑨⑨⑤ |⑥⑦--|
⑧②口② |⑧-⑨-|
45
①⑦①④ |①--②|
③⑧⑨口 |③-④⑤|
⑥⑧⑨⑤ |⑥⑦--|
⑧②②口 |⑧-⑨-|
46
①⑦口④ |①--②|
③⑨⑧① |③-④⑤|
⑥⑨⑧⑤ |⑥⑦--|
⑧②口② |⑧-⑨-|
47
①⑦口④ |①--②|
③⑨⑧① |③-④⑤|
⑥⑧⑨⑤ |⑥⑦--|
⑧口②② |⑧-⑨-|
48
①⑦①④ |①--②|
③⑧⑧口 |③-④⑤|
⑥⑨⑨⑤ |⑥⑦--|
⑧②口② |⑧-⑨-|
49
①⑦①④ |①--②|
③⑧⑨口 |③-④⑤|
⑥⑧⑨⑤ |⑥⑦--|
⑧②②口 |⑧-⑨-|
50
①⑦⑧④ |①--②|
③⑪⑫① |③-④⑤|
⑥⑨⑩⑤ |⑥⑦⑧-|
口②口② |⑨⑩⑪⑫|
51
①⑦口④ |①--②|
③⑨⑧① |③-④⑤|
⑥⑧⑨⑤ |⑥⑦--|
⑧口②② |⑧-⑨-|
52
①⑦①④ |①--②|
③⑧⑧口 |③-④⑤|
⑥⑨⑨⑤ |⑥⑦--|
⑧②口② |⑧-⑨-|
53
①⑦①④ |①--②|
③⑧⑨口 |③-④⑤|
⑥⑧⑨⑤ |⑥⑦--|
⑧②②口 |⑧-⑨-|
54
①⑦口④ |①--②|
③⑨⑧① |③-④⑤|
⑥⑨⑧⑤ |⑥⑦--|
⑧②口② |⑧-⑨-|
55
①口④口 |①--②|
口口口② |--③④|
③口口口
口①口口

⑧口口⑤
⑥口口口
口口口⑦ |⑤--⑥|
口口⑤口 |--⑦⑧|
56
口①⑤④ |①--②|
口口②⑦ |--③④|
③口口口 |⑤--⑥|
①⑧⑥⑤ |--⑦⑧|
57
口⑥⑤⑤ |①-②-|
③③②⑨ |③-④-|
④⑧①① |⑤-⑥-|
口口口⑦ |⑦-⑧⑨|
58
①口④④ |①---|
②③③口 |②---|
③④②② |③---|
④①①口 |④---|
59
①②口口 |①②-③|
口口⑤④ |-④-⑤|
口口⑧⑦ |-⑥-⑦|
⑨口③⑥ |⑧-⑨-|
60
①口口⑤ |--①-|
③④口口 |②-③④|
口②⑦⑥ |-⑤-⑥|
⑧口口口 |⑦-⑧-|
61
①②口口 |①②-③|
⑨口④⑥ |-④-⑤|
口口⑧⑦ |-⑥-⑦|
口口⑤③ |⑧-⑨-|
62
①口⑧⑤ |--①-|
口口口口 |②-③④|
③④⑦⑥ |-⑤-⑥|
口②口口 |⑦-⑧-|
63
①②口口 |①②-③|
口口⑤④ |-④-⑤|
口口⑧⑦ |-⑥-⑦|
⑨口③⑥ |⑧-⑨-|
64
①口口⑤ |--①-|
③④口口 |②-③④|
口②⑦⑥ |-⑤-⑥|
⑧口口口 |⑦-⑧-|
65
①②口口 |①②-③|
⑨口④⑥ |-④-⑤|
口口⑧⑦ |-⑥-⑦|
口口⑤③ |⑧-⑨-|
66
①口⑫② |--①②|
⑪⑬⑥口 |③④⑤⑥|
④⑧⑭⑩ |⑦⑧⑨⑩|
③⑦⑤⑨ |⑪⑫⑬⑭|
67
①②口口 |①②-③|
口口⑥⑤ |④⑤-⑥|
④口⑩⑨ |⑦⑧-⑨|
⑪⑦③⑧ |⑩-⑪-|
68
②口①⑦ |①-②-|
④⑤口口 |③-④⑤|
口③⑨⑧ |⑥⑦-⑧|
⑩⑥口口 |⑨-⑩-|
69
①②口口 |①②-③|
⑪⑦⑤⑧ |④⑤-⑥|
口④⑩⑨ |⑦⑧-⑨|
口口⑥③ |⑩-⑪-|
70
②口①口 |①-②-|
口口口口 |③-④⑤|
④⑤口口
口③口口

口口⑩⑦
口⑥口口
口口⑨⑧ |⑥⑦-⑧|
口口口口 |⑨-⑩-|
71
①口⑧口 |①--②|
口口③⑤ |-③-④|
口口⑦⑥ |-⑤-⑥|
①口④② |⑦-⑧-|
72
口口口① |①-②-|
口②口口 |③-④⑤|
④⑤口口
③口口①

口⑥口口
口口口⑦
口口⑨⑧ |⑥⑦-⑧|
口⑥口⑩ |⑨-⑩-|
73
①⑨⑧④ |①②③④|
⑤⑬⑥⑩ |⑤⑥⑦⑧|
⑮⑦⑫⑯ |⑨⑩⑪⑫|
③⑪②⑭ |⑬⑭⑮⑯|
74
①②口口 |①---|
口②口② |----|
口②②口 |----|
口②口② |②---|
75
①⑧②① |①②-③|
④口⑤口 |④⑤-⑥|
⑦⑩⑨⑥ |⑦⑧-⑨|
⑩口③⑪ |⑩-⑪-|
76
①⑨⑧② |①-②-|
③口⑤④ |③-④⑤|
⑥口口⑦ |⑥⑦-⑧|
⑨口③⑩ |⑨-⑩-|
77
①⑧口⑤ |①②-③|
④口⑩⑨ |④⑤-⑥|
⑦②①⑥ |⑦⑧-⑨|
⑩口③⑪ |⑩-⑪-|
78
①口③口 |①-②-|
③⑩口⑦ |③-④⑤|
⑥口⑤④ |⑥⑦-⑧|
⑨⑨②⑧ |⑨-⑩-|
79
①⑧②① |①②-③|
④口⑤口 |④⑤-⑥|
⑦⑩⑨⑥ |⑦⑧-⑨|
⑩口③⑪ |⑩-⑪-|
80
①⑨⑧② |①-②-|
③口⑤④ |③-④⑤|
⑥口口⑦ |⑥⑦-⑧|
⑨口③⑩ |⑨-⑩-|
81
①⑧口⑤ |①②-③|
④口⑩⑨ |④⑤-⑥|
⑦②①⑥ |⑦⑧-⑨|
⑩口③⑪ |⑩-⑪-|
82
①口口② |①--②|
③口口口 |--③-|
口②①③
口口口口

口口口口
口⑤口④
口口⑥口 |④---|
⑦④口⑧ |⑤⑥⑦⑧|
83
①⑧②① |①②-③|
④口⑤口 |④⑤-⑥|
⑦⑩⑨⑥ |⑦⑧-⑨|
⑩口③⑪ |⑩-⑪-|
84
①⑨⑧② |①-②-|
③口⑤④ |③-④⑤|
⑥口口⑦ |⑥⑦-⑧|
⑨口③⑩ |⑨-⑩-|
85
①⑧口⑤ |①②-③|
④口⑩⑨ |④⑤-⑥|
⑦②①⑥ |⑦⑧-⑨|
⑩口③⑪ |⑩-⑪-|
86
①口③口 |①-②-|
③⑩口⑦ |③-④⑤|
⑥口⑤④ |⑥⑦-⑧|
⑨⑨②⑧ |⑨-⑩-|
87
口①⑦① |①-②-|
④口③口 |③-④-|
⑥②口口 |⑤-⑥-|
⑧口⑤口 |⑦-⑧-|
88
④①口① |①-②-|
⑧口⑤口 |③-④-|
口②口口 |⑤-⑥-|
口⑥⑦③ |⑦-⑧-|
89
⑭④⑦① |①②③④|
⑯⑧⑪⑮ |⑤⑥⑦⑧|
⑥⑫③⑨ |⑨⑩⑪⑫|
②⑩⑬⑤ |⑬⑭⑮⑯|
90
口①口① |①---|
口口口口 |----|
②口口③ |②---|
口口口口 |③---|
91
口①口口 |①---|
口①口① |----|
口①①口 |----|
口①口① |----|

accuracy: 100%
最終更新:2022年03月31日 09:58