アットウィキロゴ
Dream drip macchiato
BEMANI Sound Team "TAG"

EXTREME

Level: 9.4
BPM: 160
Notes(hold): 741(21)

1
□⑤①⑦ |①-②-|
①□□⑥ |③-④-|
②⑦⑦⑤ |⑤-⑥-|
□③④□ |--⑦-|
2
①④③□ |--①-|
④②□□ |②-③-|
□□□□ |④-⑤-|
□□⑤□ |----|
3
□□□① |①-②-|
④□①□ |③-④-|
②□③□ |⑤-⑥-|
□□□③ |--⑦-|

□⑤⑤□
□⑦⑦⑥
□□□⑥
⑦□□□
4
□④④□ |--①-|
□□□⑤ |②-③-|
①□③□ |④-⑤-|
□②□□ |----|
5
①――< |①---|
□④□□ |②---|
□③④② |③---|
□□②① |④---|
6
■□③② |①---|
□□②① |②---|
□□④④ |③---|
□□□□ |④---|
7
■□□□ |①-②-|
④③②① |③-④-|
⑧⑦⑥⑤ |⑤-⑥-|
□□□□ |⑦-⑧-|
8
1□□□ |①②③④|
⑤①⑦③ |⑤⑥⑦⑧|
□□□□ |⑨⑩⑪⑫|
⑧④⑥② |⑬---|

⑬⑬⑬⑩
□⑬□□
⑪⑬⑨⑫
□□□□
9
□□□□ |①-②③|
①□⑤① |④-⑤-|
□□□□ |-⑥--|
④③②□ |⑦-⑧-|

⑥⑥□□
□□□⑧
□□□□
□□□⑦
10
□⑧⑥⑥ |①-②③|
②③④□ |④-⑤-|
①□□① |-⑥--|
⑤□□⑦ |⑦-⑧-|
11
②□⑤□ |①-②③|
③□□① |④-⑤-|
④□□□ |-⑥--|
□①□□ |⑦-⑧-|

□□□□
□□□⑦
□⑧□□
□□⑥⑥
12
①□④① |①-②③|
□□③□ |④-⑤-|
⑤□②□ |-⑥--|
□□□□ |⑦⑧⑨⑩|

□□□⑦
□□□⑧
□□□⑨
⑥⑥□⑩
13
②③④⑥ |①-②③|
①⑧⑥□ |④-⑤-|
⑤□□□ |-⑥--|
⑦□①□ |⑦-⑧-|
14
□□□⑤ |①-②③|
①⑦□① |④-⑤-|
□④③② |-⑥--|
□⑥⑥⑧ |⑦-⑧-|
15
⑥①⑥⑧ |①-②③|
②□⑤□ |④-⑤-|
③□□① |-⑥--|
④⑦□□ |⑦-⑧-|
16
⑦⑥□⑦ |①-②-|
①③⑤□ |③-④-|
④⑧□② |⑤-⑥-|
□⑤③① |⑦-⑧-|
17
□□④□ |①-②-|
①③□③ |③-④-|
□□②□ |⑤--⑥|
①③□① |--⑦-|

⑤⑤□□
⑦□□□
⑥⑥□□
□□□⑦
18
⑦⑤⑥① |①-②-|
□②②□ |③-④-|
⑦□⑥③ |⑤--⑥|
③③④□ |--⑦-|
19
□④□□ |①-②-|
③□③① |③-④-|
□②□□ |⑤--⑥|
①□③① |--⑦-|

□□⑤⑤
□□□⑦
□□⑥⑥
⑦□□□
20
①⑥⑤⑦ |①-②-|
□②②□ |③-④-|
③⑥□⑦ |⑤--⑥|
□④③③ |--⑦-|
21
□□④□ |①-②-|
①③□③ |③-④-|
□□②□ |⑤--⑥|
①③□① |--⑦-|

⑤⑤□□
⑦□□□
⑥⑥□□
□□□⑦
22
⑦⑤⑥① |①-②-|
□②②□ |③-④-|
⑦□⑥③ |⑤--⑥|
③③④□ |--⑦-|
23
□④□□ |①-②-|
③□③① |③-④-|
□②□□ |⑤--⑥|
①□③① |--⑦-|

□□⑤⑤
□□□⑦
□□⑥⑥
⑦□□□
24
①□□④ |①-②-|
□②②□ |③-④-|
③□□□ |⑤-⑥⑦|
□④③③ |⑧-⑨-|

□⑤⑤□
□⑨□⑥
□⑦⑧□
□□□□
25
①⑥③② |①---|
⑧□②⑧ |②-③-|
④□⑦① |④-⑤⑥|
□□①⑤ |⑦-⑧-|
26
⑧□⑤□ |--①-|
⑥④④⑧ |②-③-|
□②⑦③ |④-⑤⑥|
□①①□ |⑦-⑧-|
27
□③□① |①---|
□②②□ |②-③-|
①□□□ |④-⑤⑥|
□①□□ |--⑦-|

⑤□⑥□
□□□⑦
⑦□□④
□⑦□□
28
□①□③ |--①-|
①④□⑤ |②-③-|
□□②⑥ |④-⑤⑥|
⑧⑧①⑦ |⑦-⑧-|
29
①⑥③② |①---|
⑧□②⑧ |②-③-|
④□⑦□ |④-⑤⑥|
□□①⑤ |⑦-⑧-|
30
⑧□⑤□ |--①-|
⑥④④⑧ |②-③-|
□②⑦③ |④-⑤⑥|
□①①□ |⑦-⑧-|
31
□>―① |①---|
□□□□ |②---|
②②□□ |③--④|
①①□□ |⑤-⑥-|

⑤③□3
―⑥□
□□④□
⑥□□□
32
④>―③ |--①-|
①②2□ |②-③-|
①②⑤□ |④--⑤|
⑥□□□ |--⑥-|
33
②□①1 |①---|
□□③① |②-③-|
□□□□ |④-⑤-|
□□□□ |--⑥-|

□□⑥□
⑥□□□
④□□□
□□⑤□
34
□□□□ |--①-|
□□④① |②-③-|
③⑤②□ |--④-|
□③⑥□ |⑤-⑥-|
35
□①□② |①---|
①③□□ |②-③-|
□□□□ |④-⑤-|
□□□□ |--⑥-|

□⑥□□
□□□⑥
□□□④
□⑤□□
36
□④□⑤ |--①-|
①□③□ |②-③-|
□②□③ |--④-|
④□⑤□ |--⑤-|
37
②□①□ |①---|
□□③① |②-③-|
□□□□ |④-⑤-|
□□□□ |--⑥-|

□□⑥□
⑥□□□
④□□□
□□⑤□
38
□□□□ |--①-|
□□④① |②-③-|
③⑤②□ |--④-|
□③⑥□ |⑤-⑥-|
39
□①□② |①---|
①③□□ |②-③-|
□□□□ |④-⑤-|
□□□□ |--⑥-|

□⑥□□
□□□⑥
□□□④
□⑤□□
40
□④□⑤ |--①-|
①□③□ |②-③-|
□②□③ |--④-|
④□⑤□ |--⑤-|
41
①□①□ |①---|
②□□① |②-③-|
□②□③ |④-⑤-|
□□□□ |⑥-⑦-|

□□⑦□
□□④⑦
④□□□
⑥□⑤□
42
①⑧□② |①-②-|
③□③⑦ |③-④-|
⑤⑥□④ |⑤-⑥-|
⑦□□□ |⑦-⑧-|
43
①□①① |①---|
②□□□ |②-③-|
□□□□ |④-⑤-|
□②□③ |⑥-⑦-|

□□⑦⑦
□□④□
④□□□
⑥□⑤□
44
①□□⑧ |①-②-|
③②⑧④ |③-④-|
⑤□③⑥ |⑤-⑥-|
⑦□⑥□ |⑦-⑧-|
45
①⑥①□ |①---|
⑥④|□ |②-③-|
□②|③ |④-⑤-|
□⑤∧□ |--⑥-|
46
□□■□ |--①-|
□④□□ |②-③-|
⑤③□① |--④-|
□⑥②□ |⑤-⑥-|
47
①>―① |①---|
□□□□ |②-③-|
□②□③ |④-⑤-|
□□□□ |--⑥-|

□⑥■■
⑥④□□
□□□□
□⑤□□
48
④□55 |--①-|
⑥③□□ |②-③-|
⑤⑤②① |--④-|
□□□□ |⑤-⑥-|
49
□①□□ |①---|
□□①□ |②---|
□□□② |③--④|
①□②② |--⑤-|

□⑤□③
⑤④□④
③③⑤□
□④□□
50
①④②③ |--①-|
⑤⑤□④ |②---|
③□□④ |③--④|
①③②□ |--⑤-|
51
□□①□ |①---|
□□□□ |②---|
②□①□ |③--④|
②②□① |--⑤-|

③③⑤□
⑤□□④
□④□□
□□④□
52
③②④① |--①-|
□□□④ |②---|
□⑤③□ |③--④|
⑤②③① |--⑤-|
53
□①□□ |①---|
①□①□ |②---|
□□□② |③--④|
□□②② |--⑤-|

④⑤③③
□□□⑤
③□⑤□
□④□□
54
□□⑤⑤ |--①-②-|
②④③□ |③-④-⑤-|
④②□③ |⑥--⑦|
□□①① |--⑧-|

□⑦□□
⑧□□□
□□⑦□
⑥⑥□⑧
55
①□②□ |①---|
□□①① |②---|
□□□□ |③--④|
□②□□ |--⑤-|

⑤③□⑤
□□□□
④④□③
□□③□
56
□③□□ |--①-|
□□①① |②-③-|
□□②② |④-⑤⑥|
□□□□ |⑦-⑧-|

□□④⑥
⑤④□⑧
□⑦□□
□□⑧□
57
①□□□ |①---|
④⑤□□ |②-③-|
①⑥③⑦ |④-⑤⑥|
⑧②⑧② |⑦-⑧-|
58
□□①① |--①-|
□□②② |②-③-|
①□□□ |④-⑤⑥|
□③□□ |⑦-⑧-|

□□□⑧
⑧⑦□□
□⑥⑤④
□□□□
59
①⑦①⑦ |①---|
□□⑥□ |②-③-|
②□⑤□ |④-⑤⑥|
□③□④ |--⑦-|
60
□□□□ |--①-|
②②□□ |②-③-|
①①□③ |④-⑤⑥|
□□①□ |⑦-⑧-|

□□⑥⑤
□□⑦□
□⑧□□
④□□□
61
①□□□ |①---|
④⑤□□ |②-③-|
①⑥③⑦ |④-⑤⑥|
⑧②⑧② |⑦-⑧-|
62
□□①① |--①-|
□□②② |②-③-|
①□□□ |④-⑤⑥|
□③□□ |⑦-⑧-|

□□□□
⑧⑦□□
□⑥⑤④
□□□□
63
①①□① |①---|
□□□| |②---|
□□□∧ |③--④|
□②②□ |⑤-⑥-|

□□□■
□⑤□□
④④③③
□□□□

⑥□⑥6
□□|□
□□∧□
□□□□
64
□③3□ |--①-|
□|□□ |②-③-|
□∧□□ |④--⑤|
①□②□ |--⑥-|

□6□□
⑥⑥□□
⑤⑤④④
□□□□
65
②□□① |①---|
□□③① |②-③-|
□□□□ |④-⑤-|
□□□□ |--⑥-|

□□⑥□
⑥□□□
④□□□
□□⑤□
66
□□□□ |--①-|
□□④① |②-③-|
③⑤②□ |--④-|
□③⑥□ |⑤-⑥-|
67
①□□② |①---|
①③□□ |②-③-|
□□□□ |④-⑤-|
□□□□ |--⑥-|

□⑥□□
□□□⑥
□□□④
□⑤□□
68
□④□⑤ |--①-|
①□③□ |②-③-|
□②□③ |--④-|
④□⑤□ |--⑤-|
69
①□□□ |①---|
|①□□ |--②-|
∧|□□ |----|
□∧□□ |--③-|

2□□□
2②□
□>―②
□□□□

□□□□
∨∨3□
||□3
③③□□
70
□□①① |----|
□□|| |--①-|
□□∧∧ |----|
11□□ |②-③-|

□□22
□□□□
□□□□
□□□□

□∨∨□
□③③□
□③③□
□∧∧□
71
□□□□ |----|
□■■□ |----|
□■■□ |----|
□□□□ |----|
72
□□□□ |----|
□■■□ |----|
□■■□ |----|
□□□□ |----|
73
□□□□ |①---|
□11□ |----|
□11□ |----|
□□□□ |----|
最終更新:2019年11月11日 12:50