アットウィキロゴ
幸せが鳴る夜に
PAN

BASIC

Level: 4
BPM: 191
Notes: 262

1
口口口口 |----|
口口口口 |----|
口口口口 |----|
口口口口 |----|
2
口口口口 |----|
口口口口 |----|
口口口口 |----|
口口口口 |----|
3
口口口口 |①---|
①口③③ |----|
口口②② |②---|
口口口口 |③---|
4
口口①① |①---|
口口口口 |----|
口口口口 |----|
口口口口 |----|
5
口口口口 |①---|
③③口① |----|
②②口口 |②---|
口口口口 |③---|
6
①①口口 |①---|
口口口口 |----|
口口口口 |----|
口口口口 |----|
7
口口口口 |----|
口口口口 |----|
口口口口 |----|
口口口口 |----|
8
口①口口 |①---|
口口②口 |----|
口口口口 |②---|
口口口口 |----|
9
口口口口 |①---|
口口口口 |----|
口①口口 |②---|
口口②口 |----|
10
口口口口 |①---|
口口口口 |----|
口口口② |②---|
①口口口 |----|
11
口口口② |①---|
①口口口 |----|
口口口口 |②---|
口口口口 |----|
12
①口口口 |①---|
口②口口 |----|
口口口口 |②---|
口口口口 |----|
13
口口口口 |①---|
口口口口 |----|
口口①口 |②---|
口口口② |----|
14
口口口口 |①---|
口口口口 |----|
口②口口 |②---|
①口口口 |----|
15
口口口② |①---|
口口①口 |----|
口口口口 |②---|
口口口口 |----|
16
口口口口 |①---|
口①口口 |②---|
口口②口 |③---|
口③口口 |----|
17
口口口口 |①---|
口口①口 |②---|
口②口口 |③---|
口口③口 |----|
18
口口口口 |①---|
口口口口 |----|
口口口② |②---|
口口口① |----|
19
口口口口 |①---|
口口口① |----|
口口口口 |----|
口口口口 |----|
20
口口④口 |①---|
口③口口 |②---|
口口②口 |③---|
口①口口 |④---|
21
①口口口 |①---|
口口口口 |----|
口口口口 |----|
口口口口 |----|
22
口口①口 |①---|
口口②口 |----|
口口口口 |②---|
口口口口 |----|
23
口口口口 |①---|
口口口口 |----|
口口①口 |②---|
口口②口 |----|
24
口口口④ |①---|
③口口口 |②---|
口口口② |③---|
①口口口 |④---|
25
口口口④ |①---|
③口口口 |②---|
口口口② |③---|
①口口口 |④---|
26
①口口口 |①---|
②口口口 |----|
口口口口 |②---|
口口口口 |----|
27
口口口口 |①---|
口口口口 |----|
①口口口 |②---|
②口口口 |----|
28
口④口口 |①---|
口口③口 |②---|
口②口口 |③---|
口口①口 |④---|
29
口口口① |①---|
口口口口 |----|
口口口口 |----|
口口口口 |----|
30
口①口口 |①---|
口②口口 |----|
口口口口 |②---|
口口口口 |----|
31
口口口口 |①---|
口口口口 |----|
口①口口 |----|
口口口口 |----|
32
口口①① |①---|
口口口口 |----|
口口②② |②---|
口口口口 |----|
33
口口口口 |①---|
①①口口 |----|
口口口口 |②---|
②②口口 |----|
34
④口口口 |①---|
口口口③ |②---|
②口口口 |③---|
口口口① |④---|
35
口口口① |①---|
口口口口 |----|
口口口口 |----|
口口口口 |----|
36
①①口口 |①---|
口口口口 |----|
②②口口 |②---|
口口口口 |----|
37
口口口口 |①---|
口口①① |----|
口口口口 |②---|
口口②② |----|
38
口①口口 |①---|
口口②口 |②---|
口③口口 |③---|
口口④口 |④---|
39
③口口③ |①---|
①口口口 |----|
口②②口 |②---|
口口口口 |--③-|
40
口口口口 |----|
①口口① |----|
口口口口 |①---|
口口口口 |----|
41
口④④口 |①---|
口③③口 |②---|
口②②口 |③---|
①口口① |④---|
42
口口口口 |①---|
①口④④ |②---|
口口③③ |③---|
口②口口 |④---|
43
口口①① |①---|
②口口口 |②---|
③口口口 |③---|
④口口口 |④---|
44
口口口口 |①---|
④④口① |②---|
③③口口 |③---|
口口②口 |④---|
45
①①口口 |①---|
口口口② |②---|
口口口③ |③---|
口口口④ |④---|
46
①口口口 |①---|
口②口口 |②---|
③口口口 |③---|
口④口口 |④---|
47
口口口口 |①---|
口口口口 |----|
口口①口 |----|
②口口口 |②---|
48
口口口口 |①---|
口①②口 |----|
口口口口 |②---|
口口口口 |----|
49
口口①① |①---|
口口口口 |----|
口口口口 |----|
口口口口 |----|
50
口口口口 |①---|
④④口① |②---|
③③口口 |③---|
口口②口 |④---|
51
①①口口 |①---|
口口口② |②---|
口口口③ |③---|
口口口④ |④---|
52
口口口口 |①---|
①口④④ |②---|
口口③③ |③---|
口②口口 |④---|
53
口口①① |①---|
②口口口 |②---|
③口口口 |③---|
④口口口 |④---|
54
口口口① |①---|
口口②口 |②---|
口口口③ |③---|
口口④口 |④---|
55
口口口口 |①---|
口口口口 |----|
口①口口 |----|
口口口② |②---|
56
口口口口 |①---|
口②②口 |----|
口①①口 |②---|
口口口口 |----|
57
①①①① |①---|
口口口口 |----|
口口口口 |----|
口口口口 |----|
58
口口口口 |①---|
①口④④ |②---|
口口③③ |③---|
口②口口 |④---|
59
口口①① |①---|
②口口口 |②---|
③口口口 |③---|
④口口口 |④---|
60
口口口口 |①---|
④④口① |②---|
③③口口 |③---|
口口②口 |④---|
61
①①口口 |①---|
口口口② |②---|
口口口③ |③---|
口口口④ |④---|
62
口口口口 |①---|
口口口口 |②---|
口④③口 |③---|
口②①口 |④---|
63
口④③口 |①---|
口②①口 |②---|
口口口口 |③---|
口口口口 |④---|
64
②口口① |①---|
④口口③ |②---|
口口口口 |③---|
口口口口 |④---|
65
口口口口 |①---|
口口口口 |②---|
②口口① |③---|
④口口③ |④---|
66
口口口口 |①---|
④④口① |②---|
③③口口 |③---|
口口②口 |④---|
67
①①口口 |①---|
口口口② |②---|
口口口③ |③---|
口口口④ |④---|
68
口口口口 |①---|
①口④④ |②---|
口口③③ |③---|
口②口口 |④---|
69
口口①① |①---|
②口口口 |②---|
③口口口 |③---|
④口口口 |④---|
70
口口口① |①---|
口口②口 |②---|
口口口③ |③---|
口口④口 |④---|
71
口口口口 |①---|
口口口口 |----|
口①口口 |----|
口口口② |②---|
72
口口口口 |①---|
口②②口 |----|
口①①口 |②---|
口口口口 |----|
73
①①①① |①---|
口口口口 |----|
口口口口 |----|
口口口口 |----|
74
口口口口 |①---|
②口口② |----|
①口口① |②---|
口口口口 |----|
75
①①①① |①---|
口②②口 |----|
口②②口 |②---|
口口口口 |----|

accuracy: 99.5%
最終更新:2023年01月17日 11:10