アットウィキロゴ
幸せが鳴る夜に
PAN

ADVANCED

Level: 7
BPM: 191
Notes: 448

1
口口口口 |----|
口口口口 |----|
口口口口 |----|
口口口口 |----|
2
口口口口 |----|
口口口口 |----|
口口口口 |----|
口①口口 |--①-|
3
口⑧口① |①-②-|
②口⑦口 |③-④-|
口⑥口③ |⑤-⑥-|
④口⑤口 |⑦-⑧-|
4
口口口① |①---|
口口口口 |----|
口口口口 |----|
口口②口 |--②-|
5
①口⑧口 |①-②-|
口⑦口② |③-④-|
③口⑥口 |⑤-⑥-|
口⑤口④ |⑦-⑧-|
6
①口口口 |①---|
口口口口 |----|
口口口口 |----|
口口口口 |----|
7
④③②① |①---|
口口口口 |②---|
口口口口 |③---|
口口口口 |④---|
8
口⑧口⑦ |①-②-|
口⑥口⑤ |③-④-|
口④口③ |⑤-⑥-|
口②口① |⑦-⑧-|
9
⑧口⑦口 |①-②-|
⑥口⑤口 |③-④-|
④口③口 |⑤-⑥-|
②口①口 |⑦-⑧-|
10
⑧口口⑦ |①-②-|
⑥口口⑤ |③-④-|
④口口③ |⑤-⑥-|
②口口① |⑦-⑧-|
11
口⑧⑦口 |①-②-|
口⑥⑤口 |③-④-|
口④③口 |⑤-⑥-|
口②①口 |⑦-⑧-|
12
②口口① |①-②-|
④口口③ |③-④-|
⑥口口⑤ |⑤-⑥-|
⑧口口⑦ |⑦-⑧-|
13
口②①口 |①-②-|
口④③口 |③-④-|
口⑥⑤口 |⑤-⑥-|
口⑧⑦口 |⑦-⑧-|
14
④口口⑤ |①-②-|
⑥口口③ |③-④-|
②口口⑦ |⑤-⑥-|
⑧口口① |⑦-⑧-|
15
口④⑤口 |①-②-|
口⑥③口 |③-④-|
口②⑦口 |⑤-⑥-|
口⑧①口 |⑦-⑧-|
16
口口口① |①---|
口口口② |②---|
口④⑤③ |③---|
口口口口 |④-⑤-|
17
①口口口 |①---|
②⑤④口 |②---|
③口口口 |③---|
口口口口 |④-⑤-|
18
④口口口 |--①-|
口口口③ |②-③-|
口②⑤口 |④---|
口口①口 |⑤---|
19
口口①① |①---|
口口口口 |----|
口口口口 |②---|
②②口口 |----|
20
口口口口 |①---|
④④③③ |②---|
口②①口 |③---|
口口口口 |④---|
21
①①①① |①---|
口②口口 |----|
口口口口 |--②-|
③口口口 |--③-|
22
口口口③ |①-②-|
口口口⑥ |--③-|
⑤口口口 |--④-|
口①②④ |⑤-⑥-|
23
①口②口 |①-②-|
口口口口 |--③-|
口③口口 |④---|
口口④口 |----|
24
①①口口 |①---|
口口②② |②---|
③③口口 |③---|
口口④④ |④---|
25
①①口④ |①---|
口口②② |②---|
③③口口 |③---|
口口口口 |④---|
26
口口②口 |--①-|
口①①口 |--②-|
④口口口 |③---|
③口口口 |④---|
27
口口口口 |①---|
①口口口 |----|
口口口口 |②---|
口口②口 |----|
28
口口口口 |①---|
④④③③ |②---|
口②①口 |③---|
口口口口 |④---|
29
①①①① |①---|
口口口口 |----|
口口口口
口口口口

口口③口
口口口口
口口口口 |--②-|
②口口口 |--③-|
30
口口口口 |①-②-|
口③④口 |--③-|
⑥①②口 |④-⑤-|
口⑤口口 |--⑥-|
31
口口口口 |①---|
口口口口 |----|
口口口① |----|
口口口口 |----|
32
口③②① |①--②|
口口口口 |--③-|
口口口口 |④--⑤|
④⑤⑥口 |--⑥-|
33
口③②① |①--②|
口口口口 |--③-|
口口口口 |④--⑤|
④⑤⑥口 |--⑥-|
34
口口口口 |①-②-|
口②①口 |--③-|
口④③口 |④---|
口口口⑤ |⑤---|
35
口口口① |①---|
口口口口 |----|
口口口口 |②---|
②口口口 |----|
36
①②③口 |①--②|
口口口口 |--③-|
口口口口 |④--⑤|
口⑥⑤④ |--⑥-|
37
①②③口 |①--②|
口口口口 |--③-|
口口口口 |④--⑤|
口⑥⑤④ |--⑥-|
38
口④④① |--①-|
口口③① |--②-|
口②口口 |③---|
口口口口 |④---|
39
④④④④ |①---|
口口口口 |----|
②口口③ |②-③-|
口①①口 |--④-|
40
口口口口 |----|
口①①口 |----|
口口口口 |①---|
口口口口 |----|
41
口②①口 |①---|
④口口③ |②---|
③口口④ |③---|
⑤①②口 |④-⑤-|
42
⑧口①口 |①-②-|
口②口⑦ |③-④-|
⑥口③口 |⑤-⑥-|
口④口⑤ |⑦-⑧-|
43
口口口① |①---|
口口②口 |②---|
口口口口
口口口口

口口口⑤
口口口口
口③口口 |③---|
④口口口 |④-⑤-|
44
①口⑧口 |①-②-|
口⑦口② |③-④-|
③口⑥口 |⑤-⑥-|
口⑤口④ |⑦-⑧-|
45
口①口口 |①---|
口口②口 |②---|
口口口③ |③---|
口口④口 |④---|
46
④④口口 |①---|
③②口口 |②---|
②③口口 |③---|
口①口口 |④---|
47
口口①① |①---|
②②口口 |----|
口口口口 |--②-|
口口③口 |--③-|
48
③③口⑤ |①-②-|
口口②口 |--③-|
口①口⑤ |--④-|
④④口口 |--⑤-|
49
口口口口 |----|
口口口口 |----|
口口口口 |----|
口口口① |--①-|
50
口①口⑧ |①-②-|
⑦口②口 |③-④-|
口③口⑥ |⑤-⑥-|
⑤口④口 |⑦-⑧-|
51
①口口口 |①---|
口②口口 |②---|
口口口口
口口口口

⑤口口口
口口口口
口口③口 |③---|
口口口④ |④-⑤-|
52
口⑧口① |①-②-|
②口⑦口 |③-④-|
口⑥口③ |⑤-⑥-|
④口⑤口 |⑦-⑧-|
53
口口①口 |①---|
口②口口 |②---|
③口口口 |③---|
口④口口 |④---|
54
口口④④ |①---|
口口②③ |②---|
口口③② |③---|
口口①口 |④---|
55
①①口口 |①---|
口②②口 |----|
口口口口 |--②-|
口③③口 |--③-|
56
①④③② |①-②-|
口⑤⑤口 |--③-|
①③④② |--④-|
口口口口 |--⑤-|
57
口口口口 |----|
口口口口 |----|
口口口口 |----|
①口口口 |--①-|
58
⑧口①口 |①-②-|
口②口⑦ |③-④-|
⑥口③口 |⑤-⑥-|
口④口⑤ |⑦-⑧-|
59
口口口① |①---|
口口②口 |②---|
口口口口
口口口口

口口口⑤
口口口口
口③口口 |③---|
④口口口 |④-⑤-|
60
①口⑧口 |①-②-|
口⑦口② |③-④-|
③口⑥口 |⑤-⑥-|
口⑤口④ |⑦-⑧-|
61
口①口口 |①---|
口口②口 |②---|
口口口③ |③---|
口口④口 |④---|
62
口①口② |①-②-|
口③口④ |③-④-|
⑤口⑥口 |⑤-⑥-|
⑦口⑧口 |⑦-⑧-|
63
①口②口 |①-②-|
③口④口 |③-④-|
口⑤口⑥ |⑤-⑥-|
口⑦口⑧ |⑦-⑧-|
64
口⑦口⑧ |①-②-|
⑤口⑥口 |③-④-|
③口④口 |⑤-⑥-|
①口②口 |⑦-⑧-|
65
①口②口 |①-②-|
口③口④ |③-④-|
⑤口⑥口 |⑤-⑥-|
口⑦口⑧ |⑦-⑧-|
66
口①口⑧ |①-②-|
⑦口②口 |③-④-|
口③口⑥ |⑤-⑥-|
⑤口④口 |⑦-⑧-|
67
①口口口 |①---|
口②口口 |②---|
口口口口
口口口口

⑤口口口
口口口口
口口③口 |③---|
口口口④ |④-⑤-|
68
口⑧口① |①-②-|
②口⑦口 |③-④-|
口⑥口③ |⑤-⑥-|
④口⑤口 |⑦-⑧-|
69
口口①口 |①---|
口②口口 |②---|
③口口口 |③---|
口④口口 |④---|
70
口口④④ |①---|
口口②③ |②---|
口口③② |③---|
口口①口 |④---|
71
①①口口 |①---|
口②②口 |----|
口口口口 |--②-|
口③③口 |--③-|
72
①④③② |①-②-|
口⑤⑤口 |--③-|
①③④② |--④-|
口口口口 |--⑤-|
73
口口口口 |----|
口②②口 |----|
口口口口 |--①-|
口①①口 |--②-|
74
①⑤⑤② |①-②-|
口⑤⑤口 |--③-|
①④④② |--④-|
③口口③ |--⑤-|
75
①口口① |----|
①口口① |----|
口①①口 |①---|
口口口口 |----|

accuracy: 99.5%
最終更新:2023年01月17日 11:11