アットウィキロゴ
幸せが鳴る夜に
PAN

EXTREME

Level: 9.7
BPM: 191
Notes: 662

1
口口口口 |----|
口口口口 |----|
口口口口 |----|
口口口口 |----|
2
口①口口 |①---|
口口②口 |②---|
口③口口 |③---|
⑤口④口 |④-⑤-|
3
⑦⑤③① |①-②-|
⑧⑥④② |③-④-|
⑦⑤③① |⑤-⑥-|
口口口口 |⑦-⑧-|
4
口口口口 |①---|
口口口口 |----|
口口口口
口口口①

口口口口
口口口口
口口口口 |----|
口口口② |--②-|
5
①③⑤⑦ |①-②-|
②④⑥⑧ |③-④-|
①③⑤⑦ |⑤-⑥-|
口口口口 |⑦-⑧-|
6
口口口口 |①---|
口口口口 |----|
口口口口 |----|
①口口口 |----|
7
⑨⑩口口 |①②③④|
⑫①②⑪ |⑤⑥⑦⑧|
⑤③④⑥ |⑨-⑩-|
⑦⑭⑬⑧ |⑪⑫⑬⑭|
8
⑦⑧①① |①-②-|
口⑥③口 |③-④-|
口②⑤④ |⑤-⑥-|
口口口口 |⑦-⑧-|
9
口口口口 |①-②-|
⑦⑤③① |③-④-|
口口口口 |⑤-⑥-|
⑧⑥④② |⑦-⑧-|
10
⑧⑥④② |①-②-|
口口口口 |③-④-|
⑦⑤③① |⑤-⑥-|
口口口口 |⑦-⑧-|
11
口⑥⑤口 |①-②-|
口②①口 |③-④-|
口口口口 |⑤-⑥-|
⑧④③⑦ |⑦-⑧-|
12
口口口① |①-②-|
口口②④ |③-④-|
口③口口
口口口口

⑦口口⑧
口口口口
口口⑤口 |⑤-⑥-|
口口⑥口 |⑦-⑧-|
13
口①口⑨ |①②③-|
⑦口②口 |④-⑤-|
⑥③口⑧ |⑥-⑦-|
⑤口口④ |⑧-⑨-|
14
口①①口 |①-②-|
口③③② |③-④-|
④⑤⑤口 |⑤-⑥-|
⑧⑦⑦⑥ |⑦-⑧-|
15
①⑤⑥② |①②③④|
③⑦⑧④ |⑤⑥⑦⑧|
⑬⑨⑩⑭ |⑨⑩⑪⑫|
⑮⑪⑫⑯ |⑬⑭⑮⑯|
16
①②③口 |①---|
①②③口 |②---|
口④口口 |③---|
口口⑤口 |④-⑤-|
17
①②③口 |①---|
①②③口 |②---|
口口口⑤ |③---|
④口口口 |④-⑤-|
18
口口⑤④ |--①-|
①口④⑤ |②-③-|
口②口口 |④---|
口口③口 |⑤---|
19
①口口口 |①---|
口口②口 |----|
①口口口 |②---|
口口②口 |----|
20
③③④④ |①---|
口口口口 |②---|
①口口② |③---|
口口口口 |④---|
21
③口口口 |①-②-|
③①②口 |----|
口①②④ |--③-|
口①②④ |--④-|
22
口口口③ |①-②-|
口①口口 |--③-|
口④②口 |--④-|
⑤⑥口口 |⑤-⑥-|
23
口口③口 |①-②-|
口②口口 |--③-|
①口口口
口口口口

⑧口口⑨
④口口口
⑩⑥⑤⑦ |④-⑤⑥|
口口口口 |⑦⑧⑨⑩|
24
⑦口口口 |①-②-|
④⑤③① |③-④-|
口⑧⑥口 |⑤-⑥-|
②⑤③① |⑦-⑧-|
25
⑦⑦口⑧ |①-②-|
④⑤③① |③-④-|
口口⑥口 |⑤-⑥-|
②⑤③① |⑦-⑧-|
26
口口②口 |①-②-|
口口④② |--③-|
⑤口口⑦ |④-⑤-|
①⑥⑥③ |⑥-⑦-|
27
①⑤⑥① |①-②-|
③②口口 |--③-|
口④④口 |④-⑤-|
口口口口 |--⑥-|
28
⑤⑤⑦⑦ |①-②-|
⑥口口⑧ |③-④-|
①口口③ |⑤-⑥-|
②口口④ |⑦-⑧-|
29
口③口⑤ |①-②-|
口①②口 |--③-|
口①②口 |--④-|
④①②口 |--⑤-|
30
②口⑦口 |①-②-|
口③口⑦ |③-④-|
④①⑥口 |⑤-⑥-|
口口口⑤ |--⑦-|
31
口⑤口② |①-②③|
③口⑥口 |④-⑤⑥|
口口口④
①①口口

口口口口
口口口⑨
口⑦⑧口 |⑦-⑧-|
口⑩口口 |⑨-⑩-|
32
①④②② |①--②|
④①⑤⑤ |--③-|
①④⑥⑥ |④--⑤|
口口③③ |--⑥-|
33
①④②② |①--②|
④①⑤⑤ |--③-|
①④⑥⑥ |④--⑤|
口口③③ |--⑥-|
34
②口口④ |①-②-|
⑤口口口 |--③-|
口口口⑤ |④---|
①口口③ |⑤---|
35
口①①口 |①---|
口①口口 |----|
①①②口 |②---|
①①口口 |----|
36
①⑤②② |①--②|
⑤①⑥⑥ |③-④-|
①⑤⑧⑧ |⑤--⑥|
③⑦④④ |⑦-⑧-|
37
①⑤②② |①--②|
⑤①⑥⑥ |③-④-|
①⑤⑧⑧ |⑤--⑥|
③⑦④④ |⑦-⑧-|
38
①③口③ |--①-|
口口口口 |--②-|
口口口口 |③---|
②④②④ |④---|
39
口④③口 |①---|
④①①③ |----|
①口口① |②-③-|
口口②口 |--④-|
40
①⑫⑬① |①-②③|
⑭②③⑮ |④⑤⑥⑦|
⑥⑩⑪⑦ |⑧⑨⑩⑪|
④⑧⑨⑤ |⑫⑬⑭⑮|
41
①口口口 |①---|
④③口口 |②---|
②口口口 |③---|
⑤④③② |④-⑤-|
42
⑦⑤③① |①-②-|
⑧⑥④② |③-④-|
⑦⑤③① |⑤-⑥-|
口口口口 |⑦-⑧-|
43
口口口口 |①---|
口口口② |②---|
口口口口
口口口①

口口口口
口口口口
口口③口 |③---|
口④口⑤ |④-⑤-|
44
①③⑤⑦ |①-②-|
②④⑥⑧ |③-④-|
①③⑤⑦ |⑤-⑥-|
口口口口 |⑦-⑧-|
45
口口口口 |①---|
②口口口 |②---|
口③口口 |③---|
①口④口 |④---|
46
口口口口 |①---|
②④③① |②---|
口④③口 |③---|
②口口① |④---|
47
②②①① |①-②-|
④口口口 |----|
口口口口 |--③-|
口口口③ |--④-|
48
口口口口 |①-②-|
⑤④①④ |--③-|
⑤①②① |--④-|
③③①口 |--⑤-|
49
②口口① |①-②-|
口⑥⑤口 |③-④-|
口④③口 |⑤-⑥-|
⑧口口⑦ |⑦-⑧-|
50
⑦⑤③① |①-②-|
⑧⑥④② |③-④-|
⑦⑤③① |⑤-⑥-|
口口口口 |⑦-⑧-|
51
口口口口 |①---|
口口口② |②---|
口口口口
口口口①

口口口口
口口口口
口口③口 |③---|
口④口⑤ |④-⑤-|
52
①③⑤⑦ |①-②-|
②④⑥⑧ |③-④-|
①③⑤⑦ |⑤-⑥-|
口口口口 |⑦-⑧-|
53
口口口口 |①---|
②口口口 |②---|
口③口口 |③---|
①口④口 |④---|
54
口口口口 |①---|
②④③① |②---|
口④③口 |③---|
②口口① |④---|
55
②②①① |①-②-|
口④③口 |----|
口③④口 |--③-|
口口口口 |--④-|
56
口①口① |①-②-|
口口口口 |--③-|
③口口③
②口②口

④⑤④口
口⑤口⑤
口⑤⑤口 |--④-|
口⑤口⑤ |--⑤-|
57
口口口口 |----|
口口口口 |----|
口口口口 |----|
①口口口 |--①-|
58
⑦⑤③① |①-②-|
⑧⑥④② |③-④-|
⑦⑤③① |⑤-⑥-|
口口口口 |⑦-⑧-|
59
口口口口 |①---|
口口口② |②---|
口口口口
口口口①

口口口口
口口口口
口口③口 |③---|
口④口⑤ |④-⑤-|
60
①③⑤⑦ |①-②-|
②④⑥⑧ |③-④-|
①③⑤⑦ |⑤-⑥-|
口口口口 |⑦-⑧-|
61
口口口口 |①---|
②口口口 |②---|
口③口口 |③---|
①口④口 |④---|
62
⑤⑥口④ |①-②-|
口⑧②口 |③-④-|
口口③口 |⑤-⑥-|
⑦口口① |⑦-⑧-|
63
口口③口 |①-②-|
⑥口口④ |③-④-|
⑧口⑤② |⑤-⑥-|
口⑦①口 |⑦-⑧-|
64
④口⑤③ |①-②-|
⑥②口口 |③-④-|
口口口⑦ |⑤-⑥-|
⑧口口① |⑦-⑧-|
65
口②口口 |①-②-|
⑥口④口 |--③-|
口口口口 |④-⑤-|
⑦③①⑤ |⑥-⑦-|
66
⑦⑤③① |①-②-|
⑧⑥④② |③-④-|
⑦⑤③① |⑤-⑥-|
口口口口 |⑦-⑧-|
67
口口口口 |①---|
口口口② |②---|
口口口口
口口口①

口口口口
口口口口
口口③口 |③---|
口④口⑤ |④-⑤-|
68
①③⑤⑦ |①-②-|
②④⑥⑧ |③-④-|
①③⑤⑦ |⑤-⑥-|
口口口口 |⑦-⑧-|
69
口口口口 |①---|
②口口口 |②---|
④③口口 |③---|
①口④口 |④---|
70
口口口口 |①---|
②④③① |②---|
口④③口 |③---|
②口口① |④---|
71
②②①① |①-②-|
口④③口 |----|
口③④口 |--③-|
口口口口 |--④-|
72
口①口① |①-②-|
口口口口 |--③-|
③口口③
②口②口

④⑤④口
⑤⑤口口
口口口口 |--④-|
口口口口 |--⑤-|
73
⑫⑪⑩⑨ |①②③④|
⑫⑪⑩⑨ |⑤⑥⑦⑧|
⑥②①⑤ |⑨-⑩-|
⑧④③⑦ |⑪-⑫-|
74
⑤口口⑤ |①-②-|
口④口③ |--③-|
③①④口 |--④-|
口口②口 |--⑤-|
75
口①口口 |----|
口①口① |----|
口①①口 |①---|
口①口① |----|

accuracy: 99.5%
最終更新:2023年01月17日 11:11