アットウィキロゴ
Pegasus
BEMANI Sound Team "Expander"

BASIC

Level: 4
BPM: 165
Notes: 355

1
口口口口 |----|
口口口口 |----|
口口口口 |----|
口口口口 |----|
2
①②③④ |①---|
口口口口 |②---|
口口口口 |③---|
口口口口 |④---|
3
口口口口 |①---|
口①④口 |②---|
口③②口 |③---|
口口口口 |④---|
4
口口口口 |①---|
口口口口 |②---|
口口口口 |③---|
①②③④ |④---|
5
口口口口 |①---|
口①④口 |②---|
口③②口 |③---|
口口口口 |④---|
6
①②③④ |①---|
口口口口 |②---|
口口口口 |③---|
口口口口 |④---|
7
口口口口 |①---|
口③②口 |②---|
口①④口 |③---|
口口口口 |④---|
8
口口口口 |①---|
口口口口 |②---|
口口口口 |③---|
①②③④ |④---|
9
口口口口 |①---|
口①④口 |②---|
口③②口 |③---|
口口口口 |④---|
10
①①口口 |①---|
②②口口 |----|
口口口口 |②---|
口口口口 |----|
11
口口口口 |①---|
口口口口 |----|
口口②② |②---|
口口①① |----|
12
①口口口 |①---|
口②口口 |②---|
口口③口 |③---|
口口口④ |④---|
13
口口①① |①---|
口口②② |----|
口口口口 |②---|
口口口口 |----|
14
①①口口 |①---|
②②口口 |----|
口口口口 |②---|
口口口口 |----|
15
口口口口 |①---|
口口口口 |----|
口口②② |②---|
口口①① |----|
16
①口口口 |①---|
口②口口 |②---|
口口③口 |③---|
口口口④ |④---|
17
口④口口 |①---|
③口口口 |②---|
口②口口 |③---|
①口口口 |④---|
18
口口②② |①---|
口口①口 |----|
口口口口 |②---|
口口口口 |----|
19
口口口口 |①---|
口口口口 |----|
口口②② |②---|
口口①① |----|
20
①口口口 |①---|
口②口口 |②---|
口口③口 |③---|
口口口④ |④---|
21
口口①① |①---|
口口②② |----|
口口口口 |②---|
口口口口 |----|
22
②口口② |①---|
口口口口 |----|
口①①口 |②---|
口口口口 |----|
23
口口口口 |①---|
口口口口 |----|
口口②② |②---|
口口①① |----|
24
①口口口 |①---|
口②口口 |②---|
口口③口 |③---|
口口口④ |④---|
25
口④口口 |①---|
③口口口 |②---|
口②口口 |③---|
①口口口 |④---|
26
口口口① |①---|
口口口② |②---|
口口口③ |③---|
口口口④ |④---|
27
①口口口 |①---|
②口口口 |②---|
③口口口 |③---|
④口口口 |④---|
28
口④口口 |①---|
口口③口 |②---|
口②口口 |③---|
口口①口 |④---|
29
④④④④ |①---|
③口口③ |②---|
②口口② |③---|
①口口① |④---|
30
口口④口 |①---|
口口③口 |②---|
口口②口 |③---|
口口①口 |④---|
31
口④口口 |①---|
口③口口 |②---|
口②口口 |③---|
口①口口 |④---|
32
口口①① |①---|
口口口口 |----|
口口口口 |②---|
②②口口 |----|
33
④④口口 |①---|
口③口口 |②---|
口口②口 |③---|
口口口① |④---|
34
口口口口 |①---|
口口①① |----|
②②口口 |②---|
口口口口 |----|
35
④口口口 |①---|
口③口口 |②---|
口口②口 |③---|
口口口① |④---|
36
口口口口 |①---|
口口①① |----|
②②口口 |②---|
口口口口 |----|
37
②口口② |①---|
口口口口 |----|
口口口口 |②---|
口①①口 |----|
38
口口口口 |①---|
口口②② |----|
①①口口 |②---|
口口口口 |----|
39
④口口口 |①---|
口③口口 |②---|
口口②口 |③---|
口口口① |④---|
40
③③②② |①---|
口口口口 |②---|
口口口① |③---|
口口口口 |----|
41
口口口口 |①---|
口②口口 |----|
口口①口 |②---|
口口口口 |----|
42
口口口口 |①---|
口口①① |----|
②②口口 |②---|
口口口口 |----|
43
④口口口 |①---|
口③口口 |②---|
口口②口 |③---|
口口口① |④---|
44
口口口口 |①---|
口口①① |----|
②②口口 |②---|
口口口口 |----|
45
③口口③ |①---|
口口口口 |----|
口口②口 |②---|
口①①口 |③---|
46
口口②口 |①---|
口①口口 |----|
口口口口 |②---|
口口口口 |----|
47
④口口口 |①---|
口③口口 |②---|
口口②口 |③---|
口口口① |④---|
48
③③②② |①---|
口口口口 |②---|
口口口① |③---|
口口口口 |----|
49
口③③口 |①---|
口②口口 |----|
口口①口 |②---|
口口口口 |③---|
50
④口口口 |①---|
③口口口 |②---|
②口①口 |③---|
口口口口 |④---|
51
口口口④ |①---|
口口口③ |②---|
口口口② |③---|
口口口① |④---|
52
口①口口 |①---|
口②口口 |②---|
口③口口 |③---|
口④口口 |④---|
53
④口口④ |①---|
口③③口 |②---|
口口②口 |③---|
口口①口 |④---|
54
③①口③ |①---|
口口口口 |----|
口口口口 |②---|
口口②口 |③---|
55
口口口口 |①---|
口④①口 |②---|
口②③口 |③---|
口口口口 |④---|
56
④口口口 |①---|
口口口③ |②---|
②口口口 |③---|
口口口① |④---|
57
口口口① |①---|
口②②口 |----|
口②②口 |②---|
口口口口 |----|
58
④口口④ |①---|
口口③口 |②---|
口②口口 |③---|
①口口口 |④---|
59
口④④口 |①---|
③③口口 |②---|
口口②② |③---|
口①①口 |④---|
60
口③③口 |①---|
口口②② |②---|
①①口口 |③---|
④口口④ |④---|
61
③口口口 |①---|
口①②口 |②---|
口②①口 |③---|
口口口④ |④---|
62
口口①① |①---|
口③③口 |②---|
口口口口 |----|
②②口口 |③---|
63
②口口② |①---|
口口口口 |②---|
口③①口 |----|
口口口口 |③---|
64
口口①口 |①---|
口②口口 |②---|
口口③口 |③---|
口④口口 |④---|
65
④④口口 |①---|
口口③③ |②---|
②②口口 |③---|
口口①① |④---|
66
口口①口 |①---|
②②③③ |----|
口口口口 |②---|
口口口口 |③---|
67
口④④口 |①---|
③③口口 |②---|
口口②② |③---|
①口口口 |④---|
68
口③③口 |①---|
口口②② |②---|
①①口口 |③---|
④口口④ |④---|
69
③口口口 |①---|
口①②口 |②---|
口②①口 |③---|
口口口④ |④---|
70
口口①① |①---|
口③③口 |②---|
口口口口 |----|
②②口口 |③---|
71
②口口② |①---|
口口口口 |②---|
口③①口 |----|
口口口口 |③---|
72
口口①口 |①---|
口②口口 |②---|
口口③口 |③---|
口④口口 |④---|
73
③口口③ |①---|
口口口口 |②---|
②②口口 |③---|
口口①① |----|
74
口口口口 |①---|
③③④④ |②---|
口口②口 |③---|
口①口口 |④---|
75
口口口口 |----|
口口口口 |----|
口口口口 |----|
口口口口 |----|
76
口口④口 |①---|
口③口口 |②---|
口口②口 |③---|
口①口口 |④---|
77
①口口口 |①---|
口口口② |②---|
③口口口 |③---|
口口口④ |④---|
78
口口④口 |①---|
口③口口 |②---|
口口②口 |③---|
口①口口 |④---|
79
④④④④ |①---|
③口口③ |②---|
②口口② |③---|
①口口① |④---|

accuracy: 100%
最終更新:2022年04月28日 11:14