アットウィキロゴ
Pegasus
BEMANI Sound Team "Expander"

ADVANCED

Level: 7
BPM: 165
Notes: 505

1
口口口口 |----|
口口口口 |----|
口口口口 |----|
口口口口 |----|
2
①②③口 |①---|
口④口口 |②---|
口口⑤口 |③-④-|
口⑥口口 |⑤-⑥-|
3
口③口② |--①-|
口口④口 |--②-|
口⑤口口 |③-④-|
口口⑥① |⑤-⑥-|
4
口口④口 |①---|
③⑤口口 |②---|
②口口口 |③---|
①口口口 |④-⑤-|
5
口③口② |--①-|
口口④口 |--②-|
口⑤口口 |③-④-|
口口⑥① |⑤-⑥-|
6
①②③口 |①---|
口④口口 |②---|
口口⑤口 |③-④-|
口⑥口口 |⑤-⑥-|
7
口③口② |--①-|
口口④口 |--②-|
口⑤口口 |③-④-|
口口⑥① |⑤-⑥-|
8
口口④口 |①---|
③⑤口口 |②---|
②口口口 |③---|
①口口口 |④-⑤-|
9
口③口② |--①-|
口口④口 |--②-|
口⑤口口 |③-④-|
口口⑥① |⑤-⑥-|
10
口口口② |①-②-|
口口口③ |③-④-|
口口口④
①口口口

⑤⑤口口
口口口口
口口口口 |⑤---|
⑥⑥口口 |⑥---|
11
口⑤口⑤ |①-②-|
④口②口 |--③-|
口口①口 |④---|
口口口③ |⑤---|
12
口口口口 |①-②-|
口口⑤④ |--③-|
口②口口 |--④-|
口①③口 |⑤---|
13
口②②口 |①-②-|
口口口口 |--③-|
①④③口 |----|
口③④口 |④---|
14
②口⑤⑤ |①-②-|
③口口① |③-④-|
④口口口 |⑤---|
口口⑥⑥ |⑥---|
15
⑤口⑤口 |①-②-|
口②口④ |--③-|
口①口口 |④---|
③口口口 |⑤---|
16
口口口口 |①-②-|
口口⑤④ |--③-|
口口②口 |--④-|
口③①口 |⑤---|
17
口口③口 |①---|
口④口口 |②---|
口②⑤② |③-④-|
①⑥①口 |⑤-⑥-|
18
⑤⑤口① |①-②-|
口口②口 |③-④-|
口③口④ |⑤---|
⑥⑥口口 |⑥---|
19
口⑤口⑤ |①-②-|
④口②口 |--③-|
口口①口 |④---|
口口口③ |⑤---|
20
口口口口 |①-②-|
口口⑤④ |--③-|
口②口口 |--④-|
口①③口 |⑤---|
21
口②②口 |①-②-|
口口口口 |--③-|
①④③口 |----|
口③④口 |④---|
22
②口④④ |①-②-|
口口口① |③---|
口口口口 |④---|
口③⑤⑤ |⑤---|
23
⑤口⑤口 |①-②-|
口②口④ |--③-|
口①口口 |④---|
③口口口 |⑤---|
24
口口口口 |①-②-|
口口⑤④ |--③-|
口口②口 |--④-|
口③①口 |⑤---|
25
口口③口 |①---|
口④口口 |②---|
口②⑤② |③-④-|
①⑥①口 |⑤-⑥-|
26
口④口① |①-②-|
②口⑦口 |③-④-|
口口⑥③ |--⑤-|
口口⑤口 |⑥-⑦-|
27
①口②② |①---|
口口口口 |----|
口口口口 |②---|
③③口口 |③---|
28
口③③口 |①-②-|
②口口① |----|
口口口口 |③---|
口④④口 |④---|
29
⑦⑦⑦⑦ |①-②-|
⑥④①口 |③-④-|
口②③⑤ |⑤-⑥-|
口口口口 |⑦---|
30
口口口口 |①-②-|
口口⑦④ |③-④-|
①口⑥口 |--⑤-|
口③⑤② |⑥-⑦-|
31
①口②② |①---|
口口口口 |----|
口口口口 |②---|
③③口口 |③---|
32
口③③口 |①--②|
②口口② |----|
口①①口 |③--④|
④口口④ |----|
33
⑦⑦⑦⑦ |①-②-|
口③②⑥ |③-④-|
⑤①④口 |⑤-⑥-|
口口口口 |⑦---|
34
口口口口 |①---|
口口口口 |----|
口口口口 |②---|
①①②② |----|
35
⑤口口⑥ |①-②-|
口②口④ |③-④-|
①口③口 |⑤---|
口口口口 |⑥---|
36
口②②口 |①---|
口口口口 |②---|
③口口③ |③---|
口①①口 |----|
37
口口口口 |①---|
口①②口 |----|
口口口口 |②---|
口口口口 |----|
38
口口口口 |①---|
口口口口 |----|
①口口② |②---|
①口口② |----|
39
口②口④ |①-②-|
①口③口 |③-④-|
口⑤⑥口 |⑤---|
口口口口 |⑥---|
40
口②②口 |①---|
③口口③ |②---|
口③③口 |③---|
①口口① |----|
41
①口口③ |①---|
口口口口 |----|
口口口口 |②---|
口口口② |③---|
42
口口口口 |①---|
口口口口 |----|
口口口口 |②---|
①①②② |----|
43
⑤口口⑥ |①-②-|
口②口④ |③-④-|
①口③口 |⑤---|
口口口口 |⑥---|
44
口②②口 |①---|
口口口口 |②---|
③口口③ |③---|
口①①口 |----|
45
口口口口 |①---|
口①④口 |----|
口③口口 |②-③-|
口口②口 |④---|
46
①口③③ |①---|
口口口口 |②---|
口口口口 |③---|
口口口② |----|
47
口②口④ |①-②-|
①口③口 |③-④-|
口⑤⑥口 |⑤---|
口口口口 |⑥---|
48
口②②口 |①---|
③口口③ |②---|
口③③口 |③---|
①口口① |----|
49
①口口③ |①---|
口口口口 |----|
口口口口 |②---|
口口口② |③---|
50
①口口口 |①---|
⑦⑥口口 |②-③-|
⑤④口口 |④-⑤-|
③②口口 |⑥-⑦-|
51
口①口② |①-②-|
⑧口③⑤ |③-④-|
⑥④口⑦ |⑤-⑥-|
口口口口 |⑦-⑧-|
52
口口①口 |①---|
口口②口 |②---|
口口③口 |③---|
口口④口 |④---|
53
口口口④ |①-②-|
③⑥⑤口 |③-④-|
口⑤⑥② |⑤---|
①口口口 |⑥---|
54
口口①口 |①---|
④④口口 |②---|
③口口口 |③---|
②口口口 |④---|
55
⑧④口口 |①-②-|
口口③⑦ |③-④-|
⑥②口口 |⑤-⑥-|
口口①⑤ |⑦-⑧-|
56
口⑤①口 |①-②-|
口②⑥口 |③-④-|
口⑦③口 |⑤-⑥-|
口④⑧口 |⑦-⑧-|
57
口口口① |①---|
口③②口 |----|
口②③口 |②-③-|
口口口口 |----|
58
④口口④ |①---|
口口③口 |②---|
口②口口 |③---|
①口口口 |④---|
59
口②口口 |①-②-|
②口口口 |-③--|
口口③①
口口①口

口口口口
⑥口口口
⑤口口口 |④--⑤|
④口口口 |--⑥-|
60
④④口⑤ |--①-|
口⑥口口 |②-③-|
口口③⑦ |④-⑤-|
口②口① |⑥-⑦-|
61
③口口④ |--①-|
口口口口 |②-③-|
口②口口 |④--⑤|
①⑤口⑥ |--⑥-|
62
口⑥⑥口 |①-②-|
③①口口 |③-④-|
口口②④ |--⑤-|
口⑤⑤口 |--⑥-|
63
②⑤口② |①---|
⑤③口口 |②-③-|
口②②④ |--④-|
①口④口 |--⑤-|
64
口口④口 |--①-|
口⑤口① |②-③-|
口②⑥口 |④-⑤-|
口⑦口③ |⑥-⑦-|
65
③口口④ |--①-|
②口口口 |②-③-|
⑤口口口 |④--⑤|
①口口⑥ |--⑥-|
66
口①⑤口 |①-②-|
口⑥②口 |③-④-|
⑦③口口 |⑤-⑥-|
口口④口 |⑦---|
67
口口②② |①---|
⑤口口口 |②---|
④口口口 |③--④|
③口口① |--⑤-|
68
④④口⑤ |--①-|
口⑥口口 |②-③-|
口口③⑦ |④-⑤-|
口②口① |⑥-⑦-|
69
③口口④ |--①-|
口口口口 |②-③-|
口②口口 |④--⑤|
①⑤口⑥ |--⑥-|
70
口⑥⑥口 |①-②-|
③①口口 |③-④-|
口口②④ |--⑤-|
口⑤⑤口 |--⑥-|
71
②⑤口② |①---|
⑤③口口 |②-③-|
口②②④ |--④-|
①口④口 |--⑤-|
72
口口④口 |--①-|
口⑤口① |②-③-|
口②⑥口 |④-⑤-|
口⑦口③ |⑥-⑦-|
73
③口口④ |--①-|
②⑤口口 |②-③-|
④口⑥口 |④--⑤|
①⑥口⑤ |--⑥-|
74
口①⑤口 |①-②-|
口⑥②口 |③-④-|
⑦③口口 |⑤-⑥-|
口口④口 |⑦---|
75
④④口① |①---|
口口②口 |②---|
口③口口 |③---|
口口口口 |④---|
76
⑤⑤口④ |①-②-|
③口口口 |③-④-|
口口口② |⑤---|
①口⑥⑥ |⑥---|
77
⑤⑤口口 |①-②-|
口①④口 |③-④-|
口③②口 |⑤---|
口口⑥⑥ |⑥---|
78
⑤⑤口口 |①-②-|
①口口④ |③-④-|
③口口② |⑤---|
口口⑥⑥ |⑥---|
79
⑦⑦④口 |①-②-|
口③口口 |③-④-|
口口②⑥ |⑤-⑥-|
⑤①口口 |⑦---|

accuracy: 100%
最終更新:2022年04月28日 11:36