アットウィキロゴ
Pegasus
BEMANI Sound Team "Expander"

EXTREME

Level: 10.1
BPM: 165
Notes: 845

1
口口口口 |----|
口口口口 |----|
口口口口 |----|
口口口口 |----|
2
口③①② |①---|
④口②① |②---|
口⑤口口 |③-④-|
⑥口口口 |⑤-⑥-|
3
③口口⑥ |--①-|
口口②① |--②-|
口④⑤口 |③-④-|
口口①② |⑤-⑥-|
4
②①⑥口 |①---|
①②口⑤ |②---|
口口④口 |③-④-|
口口口③ |⑤-⑥-|
5
⑥口口③ |--①-|
②①口口 |--②-|
口⑤④口 |③-④-|
①②口口 |⑤-⑥-|
6
口③①② |①---|
④口②① |②---|
口⑤口口 |③-④-|
⑥口口口 |⑤-⑥-|
7
③口口⑥ |--①-|
口口②① |--②-|
口④⑤口 |③-④-|
口口①② |⑤-⑥-|
8
②①⑥口 |①---|
①②口⑤ |②---|
口口④口 |③-④-|
口口口③ |⑤-⑥-|
9
口口⑥⑥ |--①-|
②①口口 |--②-|
口⑤④③ |③④⑤-|
①②⑥⑥ |⑥---|
10
③②⑥⑤ |①-②-|
②③口① |③-④-|
口口⑤⑥ |⑤---|
④④口口 |⑥---|
11
②①口口 |①-②-|
①②口口 |--③-|
口口口口
口口口③

口⑤口口
⑤口口口
口⑤口口 |④---|
口口④口 |⑤---|
12
④口⑤① |①-②-|
口口口口 |--③-|
口口口② |--④-|
③口口口 |⑤---|
13
口①口① |①-②-|
②④③口 |--③-|
口③④① |----|
②口②口 |④---|
14
⑤⑥②③ |①-②-|
口口③② |③-④-|
⑥⑤口口 |⑤---|
①口④④ |⑥---|
15
口口①② |①-②-|
口口②① |--③-|
口口口口
③口口口

口口⑤口
口口口⑤
口口⑤口 |④---|
口④口口 |⑤---|
16
①⑤口④ |①-②-|
口口口口 |--③-|
②口口口 |--④-|
口口口③ |⑤---|
17
③口口口 |①---|
口口④口 |②---|
⑤②①口 |③-④-|
口①②⑥ |⑤-⑥-|
18
口口⑦⑥ |①-②-|
①③口② |③④⑤-|
口④⑥⑦ |⑥---|
口⑤口口 |⑦---|
19
②①口口 |①-②-|
①②口口 |--③-|
口口口口
口口口③

口⑤口口
⑤口口口
口⑤口口 |④---|
口口④口 |⑤---|
20
④口⑤① |①-②-|
口口口口 |--③-|
口口口② |--④-|
③口口口 |⑤---|
21
口①口① |①-②-|
②④③口 |--③-|
口③④① |----|
②口②口 |④---|
22
⑥⑦②③ |①-②-|
口口口② |③-④-⑤-|
⑦⑥口④ |⑥---|
①口⑤口 |⑦---|
23
口口①② |①-②-|
口口②① |--③-|
口口口口
③口口口

口口⑤口
口口口⑤
口口⑤口 |④---|
口④口口 |⑤---|
24
①⑤口④ |①-②-|
口口口口 |--③-|
②口口口 |--④-|
口口口③ |⑤---|
25
口口口口 |①---|
口口口口 |②---|
口②①口
口①②口

③口⑤口
口⑤口④
口口⑤口 |③-④-|
口⑤口口 |⑤---|
26
口⑥口⑥ |①②③-|
③口口口 |④⑤-⑥|
②口口④
①口⑤口

⑦口口口
口⑪⑩口
口⑨⑧口 |-⑦⑧⑨|
⑬口口⑫ |⑩⑪⑫⑬|
27
口⑨①⑧ |①②③④|
②⑩⑦口 |----|
口⑪⑥③ |⑤⑥⑦⑧|
⑫④⑤口 |⑨⑩⑪⑫|
28
⑨口③⑩ |①②-③|
⑥⑦⑧③ |-④⑤-|
②口口① |⑥⑦⑧-|
口口⑤④ |⑨--⑩|
29
⑧口⑥口 |①②③-|
口⑦⑧③ |④⑤-⑥|
④⑧②⑤ |--⑦-|
口①口⑧ |⑧---|
30
口⑥口⑥ |①②③-|
③口口口 |④⑤-⑥|
②口口④
①口⑤口

⑦口口口
口⑪⑩口
口⑨⑧口 |-⑦⑧⑨|
⑬口口⑫ |⑩⑪⑫⑬|
31
口⑨①⑧ |①②③④|
②⑩⑦口 |----|
口⑪⑥③ |⑤⑥⑦⑧|
⑫④⑤口 |⑨⑩⑪⑫|
32
③口②③ |①--②|
②④④① |----|
①口口② |③--④|
④②口④ |----|
33
⑧④⑤口 |①②③-|
口口⑧③ |④⑤-⑥|
⑥⑧②⑦ |--⑦-|
⑥①⑦⑧ |⑧---|
34
口①口口 |①--②|
口口口口 |--③-|
口口②口
③口口口

口⑤④④
口口口口
口口口口 |④---|
口口⑥口 |⑤-⑥-|
35
⑤⑩口⑨ |①②③④|
③④⑦⑥ |⑤-⑥⑦|
①②口口 |⑧-⑨-|
口⑪口⑧ |⑩-⑪-|
36
②口口口 |①---|
口①口口 |②---|
口②口口
①口口口

口口③③
口口③口
口口口口 |③---|
④口口口 |④---|
37
⑧②③⑦ |①---|
⑨④⑤口 |②③④⑤|
⑩⑥口① |⑥-⑦-|
⑪口口① |⑧⑨⑩⑪|
38
口②⑥口 |①---|
口⑤口① |②-③-|
口③①口 |④-⑤-|
口⑦口④ |⑥-⑦-|
39
⑥⑦口⑤ |①②③④|
口口④③ |⑤-⑥⑦|
口口②①
口口口口

口口口口
口⑨口口
⑬⑧口⑫ |⑧-⑨-|
⑪口口⑩ |⑩⑪⑫⑬|
40
口②①② |①---|
口口②① |②---|
口口口口
口口口口

③口口口
④③口⑤
⑥口③⑦ |③---|
口口口③ |④⑤⑥⑦|
41
③口口③ |①---|
口③③口 |----|
③口口③ |②---|
②①①② |③---|
42
口①口口 |①--②|
口口口口 |--③-|
口口②口
③口口口

口⑤④④
口口口口
口口口口 |④---|
口口⑥口 |⑤-⑥-|
43
⑤⑩口⑨ |①②③④|
③④⑦⑥ |⑤-⑥⑦|
①②口口 |⑧-⑨-|
口⑪口⑧ |⑩-⑪-|
44
②口口口 |①---|
口①口口 |②---|
口②口口
①口口口

口口③③
口口③口
口口口口 |③---|
④口口口 |④---|
45
口②③口 |①---|
口④⑤口 |②③④⑤|
口口口①
口口口①

口口口⑧
口口口口
⑥口口口 |⑥-⑦-|
⑥⑦⑦⑧ |⑧---|
46
①口⑤③ |①---|
口④口口 |②---|
口口口② |③-④-|
③⑥口口 |⑤-⑥-|
47
⑥⑦口⑤ |①②③④|
口口④③ |⑤-⑥⑦|
口口②①
口口口口

口口口口
口⑨口口
⑬⑧口⑫ |⑧-⑨-|
⑪口口⑩ |⑩⑪⑫⑬|
48
口②①② |①---|
口口②① |②---|
口口口口
口口口口

③口口口
④③口⑤
⑥口③⑦ |③---|
口口口③ |④⑤⑥⑦|
49
④④④④ |①---|
口口③口 |----|
口口口口 |②-③-|
②①①口 |④---|
50
口⑩⑪口 |①---|
②③⑥⑦ |②③④⑤|
④⑤⑧⑨ |⑥⑦⑧⑨|
口⑫⑬① |⑩⑪⑫⑬|
51
①⑦口④ |①-②③|
⑪③⑩⑧ |④⑤⑥-|
⑤⑬⑥⑫ |⑦⑧⑨⑩|
⑨口⑭② |⑪⑫⑬⑭|
52
①口⑤口 |①②③④|
口②口⑥ |⑤⑥⑦⑧|
③口⑦口
口④口⑧

⑬⑨口⑭
口口⑩口
⑮⑪口⑯ |⑨⑩⑪⑫|
口口⑫口 |⑬⑭⑮⑯|
53
⑨④③口 |①-②-|
②⑥⑤⑦ |③④⑤⑥|
⑨口⑧口 |⑦-⑧-|
①口口⑦ |⑨---|
54
口②口① |①---|
③口口口 |②-③-④-|
口④口口
口口口口

⑧口⑤⑧
口⑧⑧⑥
⑧口⑦⑧ |⑤-⑥-⑦-|
口口口口 |⑧---|
55
口②口口 |①-②-|
口口口口 |③-④-|
口④口口
口①③①

⑥口口⑤
口⑨⑩⑧
口口⑦口 |⑤⑥⑦-|
口口口⑧ |⑧-⑨⑩|
56
口口②口 |①-②-|
③口口口 |③-④-|
口口口④
口①口口

⑨口⑭⑥
口⑬口⑩
⑪⑤⑧口 |⑤⑥⑦⑧|
⑦⑮⑯⑫ |⑨⑩⑪⑫⑬⑭⑮⑯|
57
③①口② |①---|
①③②口 |----|
口②③口 |②-③-|
②口口③ |----|
58
⑤①口④ |①②③-|
口口口② |④-⑤⑥|
③口口口
口口口⑥

口⑪⑪口
⑨⑪⑧口
口⑦⑪⑩ |⑦⑧⑨⑩|
口⑪⑪口 |⑪---|
59
③口口② |①-②-|
口口④② |③④--|
①④口口
①口口口

口⑧口⑧
口⑥口口
⑦口⑥口 |⑤--⑥|
口⑤口⑤ |⑦-⑧-|
60
⑥口⑥口 |①-②③|
②⑦⑤⑤ |④-⑤-|
⑩③⑧口 |⑥-⑦⑧|
①⑩④⑨ |⑨-⑩-|
61
⑤③⑥② |①-②-|
④⑥③② |③-④-|
口口⑧① |⑤--⑥|
⑤⑧④⑦ |⑦-⑧-|
62
⑥口⑥② |①-②-|
④口①② |③-④-|
④③口① |⑤-⑥-|
③⑦⑤⑦ |--⑦-|
63
⑤②⑤口 |①---|
②③①口 |②-③-|
口①③② |④-⑤-|
④⑥②⑥ |--⑥-|
64
口②口⑤ |①-②③|
口口③口 |④-⑤-|
口口口④
口口①口

⑥⑪口口
⑪⑦口⑩
⑧口口口 |⑥⑦⑧⑨|
口⑨口口 |⑩-⑪-|
65
口口口口 |①-②-|
口④③口 |③-④-|
口③④口
②口②①

⑦口⑤口
口口口⑤
⑥口口口 |⑤--⑥|
口⑥口⑦ |--⑦-|
66
口④⑥③ |①②-③|
④⑦①⑩ |-④-⑤|
口②⑧③ |⑥⑦⑧⑨|
口⑨⑤⑩ |⑩---|
67
②⑦口⑦ |①---|
口⑤③口 |②③--|
⑥③⑤口 |④--⑤|
①④口④ |⑥-⑦-|
68
⑥口⑥口 |①-②③|
②⑦⑤⑤ |④-⑤-|
⑩③⑧口 |⑥-⑦⑧|
①⑩④⑨ |⑨-⑩-|
69
⑤③⑥② |①-②-|
④⑥③② |③-④-|
口口⑧① |⑤--⑥|
⑤⑧④⑦ |⑦-⑧-|
70
⑥口⑥② |①-②-|
④口①② |③-④-|
④③口① |⑤-⑥-|
③⑦⑤⑦ |--⑦-|
71
⑤②⑤口 |①---|
②③①口 |②-③-|
口①③② |④-⑤-|
④⑥②⑥ |--⑥-|
72
口②口⑤ |①-②③|
口口③口 |④-⑤-|
口口口④
口口①口

⑥⑪口口
⑪⑦口⑩
⑧口口口 |⑥⑦⑧⑨|
口⑨口口 |⑩-⑪-|
73
口口口口 |①-②-|
口④③口 |③-④-|
口③④口
②口②①

⑥口⑤口
口口口⑥
⑦口口口 |⑤--⑥|
口⑤口⑦ |--⑦-|
74
口④⑥③ |①②-③|
④⑦①口 |-④-⑤|
口②⑧③ |⑥⑦⑧⑨|
口⑨⑤口 |----|
75
①⑤⑥② |①②③④|
⑫⑦⑧⑫ |⑤⑥⑦⑧|
③⑫⑫④ |⑨⑩⑪-|
⑨⑩⑪口 |⑫---|
76
口③②口 |①-②-|
⑥口④⑨ |③④⑤-|
⑧⑧口⑤ |-⑥⑦-|
口⑦⑩① |⑧-⑨⑩|
77
⑦②⑧⑥ |-①-②|
⑨⑤口口 |③④⑤⑥|
口口④口 |-⑦--|
①⑩口③ |⑧⑨⑩-|
78
口口⑧⑦ |①-②-|
口④③① |③④⑤⑥|
②⑥⑤口 |-⑦⑧-|
⑨⑩口口 |-⑨⑩-|
79
⑩⑧⑨口 |-①②-|
③⑩②① |③④⑤-|
⑥④口⑦ |⑥⑦⑧⑨|
口口⑤口 |⑩---|

accuracy: 100%
最終更新:2023年08月25日 16:01