Life Connection [ 2 ]
world sequence
EXTREME
Level: 9.6
BPM: 200
Notes(
hold): 632(70)
 
1
口口口口|----|
口口口口|----|
口口口口|----|
口口口口
2
口②口口|①---|
④口口口|②-③-|
口口③口|--④-|
①口口①
3
③口①口|①---|
口口①口|②---|
口②口口|③---|
口②口口
4
口口∨口|①---|
口②口口|②-③-|
①口口口|--④-|
③口①口
口④④口
口口口口
口口口口
口口口口
5
口口口口|①---|
口口①|②---|
口①口口|③---|
口口①口
②口口口
②口口口
口口口口
口③口口
6
口①①④|①---|
口口口①|②-③-|
口②口口|--④-|
口口口③
7
①口口口|①---|
口①口②|②---|
③口②口|③---|
口口口口
8
口∨口口|①---|
口口②口|②-③-|
口口口①|--④-|
口①口③
口④④口
口口口口
口口口口
口口口口
9
口口口口|①---|
①口口<|②---|
口口①口|③---|
口①口口
口口口②
口口口②
口口口口
口口③口
10
口①①口|①---|
①口②口|②-③-|
口口口④|--④-|
口③口口
11
口③口②|①---|
口口口②|②---|
口①①口|③---|
口口口口
12
口口∨口|①---|
口②口口|②-③-|
①口口口|--④-|
③口①口
口④④口
口口口口
口口口口
口口口口
13
口口口口|①---|
口口①|②---|
口①口口|③---|
口口①口
②口口口
②口口口
口口口口
口③口口
14
口①①②|①---|
口口口①|②-③-|
④口③口|--④-|
口口口口
15
口口③口|①---|
口①①口|②---|
口口口口|③---|
口口②②
16
口∨口②|①---|
口口口口|②-③-|
口口③①|--④-|
口①口口
口④④口
口口口口
口口口口
口口口口
17
口口口口|①---|
①②口<|②---|
口口口③|③---|
口①口②
18
①口<①|①---|
口①③口|--②-|
口口②口|--③-|
口口口口
19
②口口口|①---|
口③口①|②---|
②口口②|③---|
口口③口
20
③口①口|①---|
②口口口|--②-|
口口∧口|--③-|
口①口口
21
口口①③|①---|
口②口④|②-③④|
口①口⑤|⑤---|
口口口口
22
口口口口|①---|
口口口口|----|
口口口口|②-③-|
①<①<
③口口口
②口②口
口口口口
②口②口
23
口口②②|①---|
口口口口|②---|
口①③③|③---|
口口口口
24
∨口口口|①---|
①口口口|--②③|
口口口口|④---|
口口口口
口口口口
②②③④
口口口口
口口口口
25
①口口⑥|①-②-|
口口口口|③-④-|
口②口④|⑤-⑥-|
③⑤口口
26
口②∨口|①---|
口口口③|--②-|
口口口口|--③-|
口口①口
27
口口口口|①---|
口口①口|②---|
②③口口|③---|
口口①口
28
口口∨口|①---|
口口口口|--②-|
口口①口|③-④-|
口口口口
口②口口
③口口口
②口②④
口口口口
29
③口口②|①---|
口③口口|②---|
口口口口|③---|
口①口口
30
口口口③|①---|
口口口口|--②-|
口口口②|--③-|
①<口口
31
口口口口|①---|
①口②口|②---|
∧口①口|③---|
①口口口
口③③口
③口口口
口口口口
口口口口
32
①口口口|①---|
口②口口|②---|
口口③口|③---|
口口口口
33
口口口口|①---|
口③②①|②---|
口口口口|③---|
口③②①
34
①>口①|①---|
口③口口|--②-|
口②口口|--③-|
口口口口
35
口口口②|①---|
①口③口|②---|
②口口②|③---|
口③口口
36
口①口③|①---|
口口口②|--②-|
口∧口口|--③-|
口口①口
37
③①口口|①---|
④口②口|②-③④|
⑤口①口|⑤---|
口口口口
38
口口口口|①---|
口口口口|----|
口口口口|②-③-|
①>①
口口口③
口②口②
口口口口
口②口②
39
②②口口|①---|
口口口口|②---|
③③①口|③---|
口口口口
40
口口口∨|①---|
口口口①|--②③|
口口口口|④---|
口口口口
口口口口
④③②② 
口口口口
口口口口
41
⑥口口①|①-②-|
口口口口|③-④-|
④口②口|⑤-⑥-|
口口⑤③
42
口∨②口|①---|
③口口口|--②-|
口口口口|--③-|
口①口口
43
口口口口|①---|
口①口口|②---|
口口③②|③---|
口①口口
44
口∨口口|①---|
口口口口|--②-|
口①口口|③-④-|
口口口口
口口②口
口口口③
④②口②
口口口口
45
②口口③|①---|
口口③口|②---|
口口口口|③---|
口口①口
46
③口口口|①---|
口口口口|--②-|
②口口口|--③-|
口口>①
47
口口口口|①---|
口②口①|②---|
口①口∧|③---|
口口口①
口③③口
口口口③
口口口口
口口口口
48
口口口口|①---|
③④口口|----|
①口①口|②-③④|
口②口口
49
②口口口|①---|
口口①口|②---|
③口口口|③---|
口口口口
50
口口口①|①-②-|
口⑤②口|③-④-|
口口口③|--⑤-|
口口④口
51
口口①口|①---|
口口口①|②---|
③③②口|③---|
口口口②
52
①⑤口①|①-②-|
∧口②口|③-④-|
口口口③|--⑤-|
口口④口
53
③口①口|①---|
口口口①|②---|
③③②口|③---|
口口口②
54
口①口口|①---|
口∧口口|②---|
口口口口|③---|
③②①口
55
口②口①|①---|
口③④口|----|
口口②①|②-③④|
口口口口
56
口口口∨|①---|
口口口①|②---|
口口口口|③---|
口①②③
57
①口口口|①---|
口②口②|----|
①口口口|②---|
口口口口
58
⑤①⑤①|①-②-|
②口②口|③-④-|
口③口③|--⑤-|
④口④口
59
口②口②|①---|
口口口口|②---|
口③口③|③---|
口①口①
60
①⑤①⑤|①-②-|
口②口②|③-④-|
③口③口|--⑤-|
口④口④
61
②口②口|①---|
口口口口|②---|
③口③口|③---|
①口①口
62
口口口口|①-②-|
②①②①|③-④-|
口⑤口⑤|--⑤-|
④③④③
63
③①③①|①---|
口口口口|②---|
②口②口|③---|
口口口口
64
∨∨口口|①---|
①①④②|②-③-|
口口口口|--④-|
口口③口
65
口口④③|①---|
③③口口|②---|
口口口②|③-④-|
口口口①
66
①口口|①---|
口口口②|②-③-|
口口口口|--④-|
口口③口
口④口口
口口口口
口④口口
口口口口
67
口口③口|①---|
口③口③|②---|
②口口①|③---|
口②口口
68
①口口<|①---|
口口②口|②---|
口口口口|③---|
口口口①
③口口口
口口口口
口口口口
③口口口
69
口④④口|①-②-|
①口口口|③---|
口②口口|④---|
口口③口
70
口口①|①---|
口②口口|②---|
口口口口|③---|
①口口口
口口口③
口口口口
口口口口
口口口③
71
口①<口|①---|
①口口②|②---|
∧口①口|③---|
口口口口
口③口口
③口口口
口口口口
口③口口
72
①口口∨|①---|
口口口口|②---|
口②口口|③---|
口口口①
口口口③
口口口口
口口口口
口口口③
73
口口口口|①-②-|
④①④口|③---|
口口②口|④---|
口③口口
74
∨口口①|①---|
口口口口|②---|
口口②口|③---|
①口口口
③口口口
口口口口
口口口口
③口口口
75
口口②口|①---|
口①口∨|②---|
口口口①|③---|
口>①口
口口口口
口口口口
③口口③
口口③口
76
①口口<|①---|
口口②口|②---|
口口口口|③---|
口口口①
③口口口
口口口口
口口口口
③口口口
77
口④④口|①-②-|
①口口口|③---|
口②口口|④---|
口口③口
78
口口①|①---|
口②口口|②---|
口口口口|③---|
①口口口
口口口③
口口口口
口口③口
口口口口
79
①口口<|①---|
口口②口|②---|
口口口口|③-④-|
口口口①
③口口口
口④口口
口口口口
③口口口
80
口②∨口|①---|
口口口口|②---|
口口①口|③---|
口口口口
口口口口
口口口口
③口③口
口口口口
81
口口①口|①---|
口③④①|②-③-|
口⑤口口|④-⑤-|
口②口口
82
口口口口|①---|
②口口口|②---|
口口①口|③---|
口口∧口
口口口口
口口口口
口口③口
③口口口
83
口口③口|①---|
口③口③|②---|
②口口①|③---|
口②口口
84
①口口<|①---|
口口②口|②---|
口口口口|③---|
口口口①
③口口口
口口口口
口口口口
③口口口
85
口④④口|①-②-|
①口口口|③---|
口②口口|④---|
口口③口
86
口口①|①---|
口②口口|②---|
口口口口|③---|
①口口口
口口口③
口口口口
口口口口
口口口③
87
口①<口|①---|
①口口②|②---|
∧口①口|③---|
口口口口
口③口口
③口口口
口口口口
口③口口
88
①口口∨|①---|
口口口口|②---|
口②口口|③---|
口口口①
口口口③
口口口口
口口口口
口口口③
89
口口口口|①-②-|
④①④口|③---|
口口②口|④---|
口③口口
90
∨口口①|①---|
口口口口|②---|
口口②口|③---|
①口口口
③口口口
口口口口
口口口口
③口口口
91
口口②口|①---|
口①口∨|②---|
口口口①|③---|
口>①口
口口口口
口口口口
③口口③
口口③口
92
①口口<|①---|
口口②口|②---|
口口口口|③---|
口口口①
③口口口
口口口口
口口口口
③口口口
93
口④④口|①-②-|
①口口口|③---|
口②口口|④---|
口口③口
94
口口①|①---|
口②口口|②---|
口口口口|③---|
①口口口
口口口③
口口口口
口口口③
口口口口
95
口①口口|①---|
①③②口|②-③-|
口⑤④口|④-⑤-|
口口口口
96
口>①口|①---|
②口口①|②---|
口口口∧|③---|
口口口口
口口③口
口口口③
口口口口
口口③口
97
①①口口|①---|
口④③口|②-③-|
口口⑤口|④-⑤-|
②口口口
98
口口②口|①---|
口口口口|②-③-|
口①口口|--④-|
口∧口口
口口口口
口口口④
口③口③
口口口口
99
①口口①|①---|
口③③口|②---|
口口口口|③---|
口②②口
100
口②口口|①---|
④口口口|②-③-|
口口③口|--④-|
①口口①
101
③口①口|①---|
口口①口|②---|
口②口口|③---|
口②口口
102
口口∨口|①---|
口②口口|②-③-|
①口口口|--④-|
③口①口
口④④口
口口口口
口口口口
口口口口
103
口口口口|①---|
口口①|②---|
口①口口|③---|
口口①口
②口口口
②口口口
口口口口
口③口口
104
口①①④|①---|
口口口①|②-③-|
口②口口|--④-|
口口口③
105
①口口口|①---|
口①口②|②---|
③口②口|③---|
口口口口
106
口∨口口|①---|
口口②口|②-③-|
口口口①|--④-|
口①口③
口④④口
口口口口
口口口口
口口口口
107
口口口口|①---|
①口口<|②---|
口口①口|③---|
口①口口
口口口②
口口口②
口口口口
口口③口
108
口①①口|①---|
①口②口|②-③-|
口口口④|--④-|
口③口口
109
口③口②|①---|
口口口②|②---|
口①①口|③---|
口口口口
110
口口∨口|①---|
口②口口|②-③-|
①口口口|--④-|
③口①口
口④④口
口口口口
口口口口
口口口口
111
口口口口|①---|
口口①|②---|
口①口口|③---|
口口①口
②口口口
②口口口
口口口口
口③口口
112
口①①②|①---|
口口口①|②-③-|
④口③口|--④-|
口口口口
113
口口③口|①---|
口①①口|②---|
口口口口|③---|
口口②②
114
口∨口②|①---|
口口口口|②-③-|
口口③①|--④-|
口①口口
口④④口
口口口口
口口口口
口口口口
115
口口口口|①---|
①②口<|②---|
口口口口|③---|
口①口②
口口口口
口③口口
口口口③
口口口口
116
①①①①|①---|
口口口口|----|
∧∧∧∧|----|
口口口口
117
口口口口|----|
口口口口|----|
口口口口|----|
口口口口
118
口口口口|----|
口口口口|----|
口口口口|----|
口口口口
119
口口口口|----|
口口口口|----|
口口口口|----|
口口口口
120
口口口口|----|
口口口口|----|
口口口口|----|
口口口口
121
①①①①|①---|
口口口口|----|
口口口口|----|
口口口口
最終更新:2021年01月12日 03:48