アットウィキロゴ
Light Shine
Ryu☆

EXTREME

Level: 9.5
BPM: 140
Notes(hold):760(80)

1
口口口口 |----|
口口口口 |----|
口口口口 |----|
口口口口 |----|
2
口⑦⑦① |①-②-|
③④口② |③④⑤⑥|
⑨⑩⑪⑫ |⑦-⑧-|
⑤⑥⑧⑧ |⑨⑩⑪⑫|
3
①⑤口④ |①-②-|
⑤②③⑥ |③-④-|
⑧口口口 |⑤--⑥|
口口⑦口 |⑦-⑧-|
4
②口①① |①--②|
⑤口口④ |③-④-|
|③口口 |⑤-⑥-|
∧口口口 |⑦-⑧-|

口⑧⑥口
⑦口口口
口口⑦口
口口口口
5
口口⑤① |①-②-|
④⑥②⑤ |③-④-|
口③口口 |⑤--⑥|
口口⑦口 |⑦-⑧-|

口口口口
口口⑧口
口口口口
口口口口
6
口口口② |①-②-|
口口口口 |③-④⑤|
①―<③ |⑥-⑦-|
口口口口 |⑧-⑨-|

口⑦口口
⑨口口∨
③⑧口|
口④⑤⑥

口口口口
口口口口
口口口口
口口口⑧
7
⑦⑦口① |①-②-|
口⑨②⑨ |③④⑤⑥|
⑧⑧口口 |⑦-⑧-|
③④⑤⑥ |⑨-⑩-|

口口口⑩
口口⑩口
口口口口
口口口口
8
口②口口 |--①-|
⑥⑦⑧⑨ |②-③-|
③口①口 |④-⑤-|
口④口⑤ |⑥⑦⑧⑨|
9
①①口④ |①-②-|
口⑦口⑦ |③-④-|
③③⑥② |⑤-⑥-|
口⑤口⑤ |⑦---|
10
口④口③ |①---|
②∨②∧ |②---|
∧③∧⑤ |③---|
①<①< |④-⑤-|

口口口④
③口③口
口④口口
②口②口
11
③⑤①⑤ |①-②-|
⑦③⑦① |③-④-|
口⑥口⑥ |⑤-⑥-|
口④口② |⑦---|
12
口口口口 |①---|
③①③① |②---|
∧∧∧∧ |③---|
②<②< |④-⑤-|

口⑤口口
④②④②
口④口口
③口③口
13
④口①① |①-②-|
⑦口⑦口 |③-④-|
②⑥③③ |⑤-⑥-|
⑤口⑤口 |⑦---|
14
③口④口 |①---|
∧②∨② |②---|
⑤∧③∧ |③---|
①>① |④-⑤-|

④口口口
口③口③
口口④口
口②口②
15
⑥①⑥③ |①-②-|
①⑦③⑦ |③-④-|
⑤口⑤口 |⑤-⑥-|
②口④口 |⑦---|
16
口口口口 |①---|
①∨①∨ |②---|
∧③∧③ |③---|
②>② |④-⑤-|

口口⑤口
②口②口
口④④④
口③口③
17
口⑦⑦① |①-②-|
③④口② |③④⑤⑥|
⑨⑩⑪⑫ |⑦-⑧-|
⑤⑥⑧⑧ |⑨⑩⑪⑫|
18
①④②口 |①-②-|
③⑦⑤⑦ |③④⑤-|
口口口口 |⑥---|
⑥⑥⑧口 |⑦-⑧-|
19
②⑦③① |①-②③|
④口⑤⑨ |④⑤⑥-|
⑥口⑩口 |⑦-⑧-|
口口⑧口 |⑨⑩-⑪|

口口⑪⑪
口口口口
口口口口
口口口口

20
⑦③⑨⑨ |①-②-|
①口②口 |③-④⑤|
④⑧⑥口 |⑥-⑦-|
口⑤口口 |⑧-⑨-|
21
口⑤⑨⑨ |①②③④|
①②③④ |⑤-⑥-|
⑧⑧口口 |⑦-⑧-|
⑥口⑦⑦ |⑨-⑩-|

⑩口口口
⑩口口口
口口口口
口口口口
22
口①口口 |①②③④|
口⑦②④ |⑤-⑥-|
口口⑤③ |⑦-⑧⑨|
⑥口口口 |⑩-⑪-|

口口口⑧
⑩口⑨口
口口口口
口⑪口口
23
③口④口 |①②-③|
⑧口⑥口 |-④-⑤|
⑤⑦②① |⑥⑦⑧-|
口口口口 |⑨⑩-⑪|

口口口口
口⑪口口
口口口⑨
口口⑩口
24
口⑤①① |①-②③|
口口⑥口 |--④-|
②口④④ |⑤⑥-⑦|
口③口口 |⑧-⑨⑩|

⑦口⑩口
口⑧口⑨
口口口口
口口口口
25
口口⑦⑦ |①-②-|
⑤⑤⑥⑥ |③-④-|
①①④④ |⑤-⑥-|
③③②② |⑦-⑧-|

口口口口
口口口口
口口口口
口⑧⑧口
26
①⑥⑤④ |①-②-|
②口口③ |③-④-|
③口口② |⑤-⑥-|
④⑤⑥① |⑦⑧⑨⑩|

口口口口
⑦⑨⑩口
口⑨⑩⑧
口口口口
27
④③②① |①-②-|
⑤口口⑥ |③-④-|
⑥口口⑤ |⑤-⑥-|
①②③④ |⑦⑧⑨⑩|

口口⑧口
口⑨⑩口
口⑨⑩口
口⑦口口
28
①⑥⑤④ |①-②-|
②口口③ |③-④-|
③口口② |⑤-⑥-|
④⑤⑥① |⑦⑧⑨⑩|

口口口口
⑧⑩⑨口
口⑩⑨⑦
口口口口
29
④③②① |①-②-|
⑤口口⑥ |③-④-|
⑥口口⑤ |⑤-⑥-|
①②③④ |⑦⑧⑨⑩|

口口⑦口
口⑩⑨口
口⑩⑨口
口⑧口口
30
①⑥⑤④ |①-②-|
②口口③ |③-④-|
③口口② |⑤-⑥-|
④⑤⑥① |⑦⑧⑨⑩|

口口口口
⑦⑨⑩口
口⑨⑩⑧
口口口口
31
④③②① |①-②-|
⑤口口⑥ |③-④-|
⑥口口⑤ |⑤-⑥-|
①②③④ |⑦⑧⑨⑩|

口口⑧口
口⑨⑩口
口⑨⑩口
口⑦口口
32
①⑥⑤④ |①-②-|
②口口③ |③-④-|
③口口② |⑤-⑥-|
④⑤⑥① |⑦⑧⑨⑩|

口口口口
⑧⑩⑨口
口⑩⑨⑦
口口口口
33
④③②① |①-②-|
⑤口口⑥ |③-④-|
⑥口口⑤ |⑤-⑥-|
①②③④ |⑦⑧⑨⑩|

口口⑦口
口口⑨口
口⑩口口
口⑧口口
34
口⑦⑦① |①-②-|
③④口口 |③④⑤⑥|
口口口② |⑦-⑧-|
⑤⑥⑧⑧ |⑨⑩⑪⑫|

口口口口
口口口口
⑨⑩⑪⑫
口口口口
35
口口③① |①-②-|
口④①③ |③-④-|
口⑥口口 |⑤-⑥-|
⑤②⑤口 |⑦---|

口口口口
⑦口⑦口
口口口口
口口口口
36
③口④口 |①---|
∧②∨② |②---|
⑤∧③∧ |③---|
①>① |④-⑤-|

④口口口
口③口③
口口④口
口②口②
37
⑥①⑥③ |①-②-|
①⑦③⑦ |③-④-|
⑤口⑤口 |⑤-⑥-|
②口④口 |⑦---|
38
口口口口 |①---|
①③①③ |②---|
∧∧∧∧ |③---|
②>② |④-⑤-|

口口⑤口
②④②④
口口④口
口③口③
39
①①口④ |①-②-|
口⑦口⑦ |③-④-|
③③⑥② |⑤-⑥-|
口⑤口⑤ |⑦---|
40
口口口③ |①---|
②∨②∧ |②---|
∧③∧口 |③---|
①<①< |④-⑤-|

口④口④
③口③口
口④口⑤
②口②口
41
③⑥①⑥ |①-②-|
⑦③⑦① |③-④-|
口⑤口⑤ |⑤-⑥-|
口④口② |⑦---|
42
口口口口 |①---|
∨①∨① |②---|
③∧③∧ |③---|
②<②< |④---|

口口口口
口②口②
④④④口
③口③口
43
①①③口 |①-②-|
口④⑥② |③-④-|
⑦⑧⑨⑩ |⑤-⑥-|
口口口⑤ |⑦⑧⑨⑩|
44
①⑤口④ |①-②-|
⑤②③⑥ |③-④-|
⑧口口口 |⑤--⑥|
口口⑦口 |⑦-⑧-|
45
②口①① |①--②|
⑤口口④ |③-④-|
|③口口 |⑤-⑥-|
∧口口口 |⑦-⑧-|

口⑧⑥口
⑦口口口
口口⑦口
口口口口
46
口⑥⑤① |①-②-|
④口②⑤ |③-④-|
口③⑦口 |⑤--⑥|
口口口口 |⑦-⑧-|

口口口口
口口⑧口
口口口口
口口口口
47
③<②③ |①---|
口②③② |②---|
口∧口口 |③---|
①口① |④⑤⑥⑦|

④口口口
口③口口
⑦⑥⑤④
口②口口
48
口口⑤口 |①-②-|
⑥③②⑤ |③-④-|
口口⑧口 |⑤--⑥|
④⑦口① |⑦-⑧-|
49
②①⑥① |①--②|
⑤口口④ |③-④-|
|③⑦口 |⑤-⑥-|
∧口⑤口 |⑦-⑧⑨|

口口口⑧
⑦口⑨口
口口口口
口口口口
50
⑤⑤口⑥ |①-②-|
⑧口口⑧ |③-④-|
①口⑦④ |⑤--⑥|
口②③口 |⑦-⑧-|
51
③<>③ |①---|
口②②口 |②---|
口∧∧口 |③---|
①①< |④⑤⑥⑦|

④⑤④④
⑦③③⑥
口口口口
口②②口
52
口口⑤⑤ |①-②-|
口口③口 |③-④-|
口④口② |⑤-⑥-|
③①①口 |⑦-⑧-|

口口口口
口⑦口口
口口⑧口
口⑥口⑦
53
①①口③ |①-②-|
⑤口④口 |③-④-|
⑥③口② |⑤-⑥-|
口口口口 |⑦---|

⑦⑦<
口口口口
口口口口
⑦⑦<
54
口①①⑥ |①-②-|
⑤①③口 |③-④-|
⑤④①② |⑤-⑥-|
③①①口 |⑦-⑧-|

口⑦口口
口口⑧口
口口口⑦
口口口口
55
③口口口 |①---|
∧②∨② |②---|
口∧③∧ |③---|
①>① |④-⑤-|

④口④口
口③口③
⑤口④口
口②口②
56
⑤⑤口口 |①-②-|
口③口② |③-④-|
口口④口 |⑤-⑥-|
口①①③ |⑦-⑧-|

口口口口
口口⑦口
口⑧口口
⑦口⑥口
57
③口①① |①-②-|
口④口⑤ |③-④-|
②口③⑥ |⑤-⑥-|
口口口口 |⑦---|

⑦⑦<
口口口口
口口口口
⑦⑦<
58
口①①口 |①-②-|
②①③⑤ |③-④-|
⑥④①⑤ |⑤-⑥-|
③①①口 |⑦-⑧-|

⑦口口口
口⑧口口
口口⑦口
口口口口
59
口口口③ |①---|
②∨②∧ |②---|
∧③∧口 |③---|
①<①< |④-⑤⑥|

口④口④
③口③口
口④⑤④
②⑥②口

①口①口 |①---|
口①口① |----|
口口口口 |----|
口口口口 |----|
最終更新:2019年11月08日 03:40