アットウィキロゴ
Samba Ramba
Y&Co. feat. Kanae Asaba

BASIC

Level: 3
BPM: 160
Notes: 272

1
口口口口 |----|
口口口口 |----|
口口口口 |----|
口口口口 |----|
2
①口口① |①---|
口口口口 |----|
口口口口 |----|
口口口口 |----|
3
口口口口 |①---|
口口口口 |----|
口口口口 |----|
①口口① |----|
4
口①①口 |①---|
口口口口 |----|
口口口口 |②---|
口②②口 |----|
5
③口口③ |①---|
②口口② |②---|
①口口① |③---|
口口口口 |----|
6
口①②口 |①---|
口口口③ |②---|
口口口④ |③---|
口口口口 |④---|
7
口口口口 |①---|
④口口口 |②---|
③口口口 |③---|
口②①口 |④---|
8
口②①口 |①---|
③口口口 |②---|
④口口口 |③---|
口口口口 |④---|
9
口口口口 |①---|
口口口④ |②---|
口口口③ |③---|
口①②口 |④---|
10
口①②口 |①---|
口口口③ |②---|
口口口④ |③---|
口口口口 |④---|
11
口口口口 |①---|
④口口口 |②---|
③口口口 |③---|
口②①口 |④---|
12
口②①口 |①---|
③口口口 |②---|
④口口口 |③---|
口口口口 |④---|
13
口口口口 |①---|
口口口④ |②---|
口口口③ |③---|
口①②口 |④---|
14
③③口口 |①---|
口②口口 |②---|
口①口口 |③---|
口口口口 |----|
15
口口口① |①---|
口口②口 |②---|
口③口口 |③---|
④口口口 |④---|
16
口口口口 |①---|
口②口口 |----|
口口口口 |②---|
口口①口 |----|
17
口口③③ |①---|
口口②口 |②---|
口口①口 |③---|
口口口口 |----|
18
①口口口 |①---|
口②口口 |②---|
口口③口 |③---|
口口口④ |④---|
19
口口口口 |①---|
口口②口 |----|
口口口口 |②---|
口①口口 |----|
20
口口口口 |①---|
口口口口 |----|
①①②② |②---|
口口口口 |----|
21
口①口口 |①---|
口口②口 |②---|
口③口口 |③---|
口口口口 |----|
22
口口口口 |①---|
口口口口 |----|
②②①① |②---|
口口口口 |----|
23
口口①口 |①---|
口②口口 |②---|
口口口口 |----|
口口口口 |----|
24
口口口口 |①---|
口口口口 |----|
口②口口 |②---|
口口①口 |----|
25
②②口口 |①---|
口口①口 |----|
口口口口 |②---|
口口口口 |----|
26
口口口口 |①---|
口口①口 |----|
口②口口 |②---|
口口口口 |----|
27
口口口口 |①---|
口口口口 |----|
口口口口 |----|
口口①口 |----|
28
口口口口 |----|
口口口口 |----|
口口口口 |----|
口口口口 |----|
29
口口口口 |----|
口口口口 |----|
口①口口 |----|
口口口口 |①---|
30
②②①① |①---|
④④③③ |②---|
口口口口 |③---|
口口口口 |④---|
31
口口口口 |①---|
口口口口 |②---|
口②①口 |③---|
口④③口 |④---|
32
口口口口 |①---|
口口口口 |②---|
④口口③ |③---|
②口口① |④---|
33
④口口③ |①---|
②口口① |②---|
口口口口 |③---|
口口口口 |④---|
34
口口①口 |①---|
口口口口 |----|
口②口口 |----|
口口口口 |②---|
35
口口①口 |①---|
口②口口 |②---|
口口③口 |③---|
口④口口 |④---|
36
口口口口 |①---|
口口口口 |----|
口口口② |②---|
口口口① |----|
37
口口口② |①---|
口口口① |----|
口口口口 |②---|
口口口口 |----|
38
①①②② |①---|
③③④④ |②---|
口口口口 |③---|
口口口口 |④---|
39
口口口口 |①---|
口口口口 |②---|
口①②口 |③---|
口③④口 |④---|
40
口口口口 |①---|
口口口口 |②---|
③口口④ |③---|
①口口② |④---|
41
③口口④ |①---|
①口口② |②---|
口口口口 |③---|
口口口口 |④---|
42
口①口口 |①---|
口口口口 |----|
口口口口 |----|
口口口口 |----|
43
口口口口 |----|
口口①口 |①---|
口②口口 |②---|
口口③口 |③---|
44
口①②口 |①---|
口口口③ |②---|
口口口④ |③---|
口口口口 |④---|
45
口口口口 |①---|
④口口口 |②---|
③口口口 |③---|
口②①口 |④---|
46
口②①口 |①---|
③口口口 |②---|
④口口口 |③---|
口口口口 |④---|
47
口口口口 |①---|
口口口④ |②---|
口口口③ |③---|
口①②口 |④---|
48
口口口口 |①---|
口口口口 |----|
①①②② |②---|
口口口口 |----|
49
口①口口 |①---|
口口②口 |②---|
口③口口 |③---|
口口口口 |----|
50
口口口口 |①---|
口口口口 |----|
②②①① |②---|
口口口口 |----|
51
口口①口 |①---|
口②口口 |②---|
口口口口 |----|
口口口口 |----|
52
口口口口 |①---|
口口口口 |----|
口②口口 |②---|
口口①口 |----|
53
②②口口 |①---|
口口①口 |----|
口口口口 |②---|
口口口口 |----|
54
口口口口 |①---|
口口①口 |----|
口②口口 |②---|
口口口口 |----|
55
口口口口 |①---|
口口口口 |----|
口口口口 |----|
口口①口 |----|
56
口口口口 |----|
口口口口 |----|
口口口口 |----|
口口口口 |----|
57
口口口口 |----|
口口口口 |----|
口①口口 |----|
口口口口 |①---|
58
②②①① |①---|
④④③③ |②---|
口口口口 |③---|
口口口口 |④---|
59
口口口口 |①---|
口口口口 |②---|
口②①口 |③---|
口④③口 |④---|
60
口口口口 |①---|
口口口口 |②---|
④口口③ |③---|
②口口① |④---|
61
④口口③ |①---|
②口口① |②---|
口口口口 |③---|
口口口口 |④---|
62
口口①口 |①---|
口口口口 |----|
口②口口 |----|
口口口口 |②---|
63
口口①口 |①---|
口②口口 |②---|
口口③口 |③---|
口④口口 |④---|
64
口口口口 |①---|
口口口口 |----|
口口口② |②---|
口口口① |----|
65
口口口② |①---|
口口口① |----|
口口口口 |②---|
口口口口 |----|
66
①①②② |①---|
③③④④ |②---|
口口口口 |③---|
口口口口 |④---|
67
口口口口 |①---|
口口口口 |②---|
口①②口 |③---|
口③④口 |④---|
68
口口口口 |①---|
口口口口 |②---|
③口口④ |③---|
①口口② |④---|
69
③口口④ |①---|
①口口② |②---|
口口口口 |③---|
口口口口 |④---|
70
口①口口 |①---|
口口口口 |----|
口口口口 |----|
口口口口 |----|
71
口口口口 |----|
口口①口 |①---|
口②口口 |②---|
口口③口 |③---|
72
口①②口 |①---|
口口口③ |②---|
口口口④ |③---|
口口口口 |④---|
73
口口口口 |①---|
④口口口 |②---|
③口口口 |③---|
口②①口 |④---|
74
口②①口 |①---|
③口口口 |②---|
④口口口 |③---|
口口口口 |④---|
75
口口口口 |①---|
口口口④ |②---|
口口口③ |③---|
口①②口 |④---|
76
口①②口 |①---|
口口口③ |②---|
口口口④ |③---|
口口口口 |④---|
77
口口口口 |①---|
④口口口 |②---|
③口口口 |③---|
口②①口 |④---|
78
口②①口 |①---|
③口口口 |②---|
④口口口 |③---|
口口口口 |④---|
79
口口口口 |①---|
口口口④ |②---|
口口口③ |③---|
口①②口 |④---|
80
口②①口 |①---|
③口口口 |②---|
④口口口 |③---|
口口口口 |④---|
81
口口口口 |①---|
口①①口 |----|
口口口口 |----|
口口口口 |----|

accuracy: 100%
最終更新:2022年05月05日 16:55