アットウィキロゴ
Samba Ramba
Y&Co. feat. Kanae Asaba

ADVANCED

Level: 6
BPM: 160
Notes: 583

1
口口口口 |----|
口口口口 |----|
口口口口 |----|
口口口口 |----|
2
口⑥⑤② |①--②|
④口口口 |--③-|
③口口口 |④--⑤|
口①①口 |--⑥-|
3
⑥口口⑤ |①--②|
口④口② |--③-|
口③口口 |④--⑤|
口①①口 |--⑥-|
4
口口②口 |①--②|
口口口口 |--③-|
③口口③
口①①口

口⑤口口
口口口口
口口口口 |④--⑤|
④⑥⑥④ |--⑥-|
5
④⑧①口 |①-②-③-|
口②口⑤ |④-⑤-⑥-|
⑥口③口 |⑦-⑧-|
口口口⑦ |----|
6
①④①④ |①--②|
⑤②⑤② |--③-|
③⑥③⑥ |④--⑤|
口口口口 |--⑥-|
7
口口口口 |①--②|
口⑥⑤④ |--③-|
口口口口 |④--⑤|
①②③口 |--⑥-|
8
①④①④ |①--②|
口口口口 |--③-|
⑤②⑤② |④--⑤|
③⑥③⑥ |--⑥-|
9
口口口口 |①--②|
口①②③ |--③-|
口口口口 |④--⑤|
⑥⑤④口 |--⑥-|
10
①④①④ |①--②|
⑤②⑤② |--③-|
③⑥③⑥ |④--⑤|
口口口口 |--⑥-|
11
口口口口 |①--②|
口⑥⑤④ |--③-|
口口口口 |④--⑤|
①②③口 |--⑥-|
12
①④①④ |①--②|
口口口口 |--③-|
⑤②⑤② |④--⑤|
③⑥③⑥ |--⑥-|
13
①口④④ |①--②|
①③③② |--③-|
⑤口口② |④--⑤|
⑤⑥⑥口 |--⑥-|
14
①②③④ |①---|
②口口口 |②---|
③口口口 |③---|
口口口口 |--④-|
15
口⑦口口 |--①-|
口①口⑥ |②-③-|
口⑤②口 |④-⑤-|
口③口④ |⑥-⑦-|
16
口口口① |①--②|
口口②口 |--③-|
口③口口 |----|
口口口口 |----|
17
④③②① |①---|
口口口② |②---|
口口口③ |③---|
口口口口 |--④-|
18
口⑦⑦口 |--①-|
⑥口①口 |②-③-|
口②⑤口 |④-⑤-|
④口③口 |⑥-⑦-|
19
②口口② |--①-|
口②②口 |--②-|
口③③口 |--③-|
③①①③ |----|
20
⑥口口① |--①-|
②③④⑤ |②-③-|
口口口口 |④-⑤-|
口口口口 |--⑥-|
21
口口口口 |--①-|
口口口口 |②-③-|
④②口⑤ |④-⑤-|
⑥口③① |--⑥-|
22
⑤口①① |①---|
口口②② |②---|
口口③③ |③---|
口口④④ |④-⑤-|
23
口②①③ |--①-|
口②①口 |②---|
口口口口 |----|
④口口口 |③-④-|
24
口口④⑥ |①-②-|
口口③口 |③-④-|
⑤口②口 |--⑤-|
口口①口 |--⑥-|
25
①口口口 |①---|
口口②口 |--②③|
口③口口 |④---|
⑤⑥④口 |⑤-⑥-|
26
口口口① |①---|
⑥②口口 |②-③-|
口口③⑤ |--④-|
④口口口 |⑤-⑥-|
27
口口口口 |----|
口①口口 |①---|
口口②口 |②---|
口③口口 |③---|
28
①口口① |①---|
②口口② |②---|
③口口③ |③---|
④口口④ |④---|
29
口①①口 |①---|
口③④口 |②-③-|
口③④⑥ |④---|
⑤②②口 |⑤-⑥-|
30
③①①③ |①---|
口口口口 |②-③-|
④口口④ |--④-|
口②②口 |----|
31
口④口⑤ |①-②-|
①口③口 |③-④-|
口②口口 |--⑤-|
⑥口口口 |⑥---|
32
①口④口 |①-②-|
口口口口 |③-④-|
口②口口
口口③口

⑦⑦口口
口口⑥口
口口口⑤ |--⑤-|
口口口口 |⑥-⑦-|
33
口口①① |----|
②②口口 |①---|
口口③③ |②---|
口口口口 |③---|
34
口口口口 |①---|
口口④口 |----|
口③口口 |--②-|
①①口② |③-④-|
35
①①③③ |①---|
口口口口 |②---|
口口口口 |③---|
②②④④ |④---|
36
口口口口 |①---|
口①①口 |②-③-|
②口口③ |----|
口④⑤口 |④-⑤-|
37
口口口口 |----|
口口口口 |----|
口口口口 |----|
口口口口 |----|
38
③①①③ |①---|
口口口口 |②-③-|
④口口④ |--④-|
口②②口 |----|
39
口④口⑤ |①-②-|
①口③口 |③-④-|
口②口口 |--⑤-|
⑥口口口 |⑥---|
40
①口④口 |①-②-|
口口口口 |③-④-|
口②口口
口口③口

⑦⑦口口
口口⑥口
口口口⑤ |--⑤-|
口口口口 |⑥-⑦-|
41
口口①① |----|
②②口口 |①---|
口口③③ |②---|
口口口口 |③---|
42
口口口口 |①---|
口口口口 |----|
口口口口 |----|
①①口口 |----|
43
口口①① |----|
口②②口 |①-②-|
③③口口 |③---|
口口口④ |④---|
44
①④①④ |①--②|
⑤②⑤② |--③-|
③⑥③⑥ |④--⑤|
口口口口 |--⑥-|
45
口口口口 |①--②|
口⑥⑤④ |--③-|
口口口口 |④--⑤|
①②③口 |--⑥-|
46
①④①④ |①--②|
口口口口 |--③-|
⑤②⑤② |④--⑤|
③⑥③⑥ |--⑥-|
47
口口口口 |①--②|
口①②③ |--③-|
口口口口 |④--⑤|
⑥⑤④口 |--⑥-|
48
⑥口口① |--①-|
②③④⑤ |②-③-|
口口口口 |④-⑤-|
口口口口 |--⑥-|
49
口口口口 |--①-|
口口口口 |②-③-|
④②口⑤ |④-⑤-|
⑥口③① |--⑥-|
50
⑤口①① |①---|
口口②② |②---|
口口③③ |③---|
口口④④ |④-⑤-|
51
口②①③ |--①-|
口②①口 |②---|
口口口口 |----|
④口口口 |③-④-|
52
口④口⑥ |①-②-|
口口③口 |③-④-|
⑤②口口 |--⑤-|
口口①口 |--⑥-|
53
①口口口 |①---|
口口②口 |--②③|
口③口口 |④---|
⑤口④口 |⑤---|
54
⑥⑥口① |①---|
口②③③ |②-③-|
口口⑤⑤ |--④-|
④④口口 |⑤-⑥-|
55
口口口口 |----|
口①口口 |①---|
口口②口 |②---|
口③口口 |③---|
56
①口口① |①---|
②口口② |②---|
③口口③ |③---|
④口口④ |④---|
57
口①①口 |①---|
口③④口 |②-③-|
口③④⑥ |④---|
⑤②②口 |⑤-⑥-|
58
③①①③ |①---|
口口口口 |②-③-|
④口口④ |--④-|
口②②口 |----|
59
口④口⑤ |①-②-|
①口③口 |③-④-|
口②口口 |--⑤-|
⑥口口口 |⑥---|
60
①口④口 |①-②-|
口口口口 |③-④-|
口②口口
口口③口

⑦⑦口口
口口⑥口
口口口⑤ |--⑤-|
口口口口 |⑥-⑦-|
61
口口①① |----|
②②口口 |①---|
口口③③ |②---|
口口口口 |③---|
62
口口口口 |①---|
口口④口 |----|
口③口口 |--②-|
①①口② |③-④-|
63
①①③③ |①---|
口口口口 |②---|
口口口口 |③---|
②②④④ |④---|
64
口口口口 |①---|
口①①口 |②-③-|
②口口③ |----|
口④⑤口 |④-⑤-|
65
口口口口 |----|
口口口口 |----|
口口口口 |----|
口口口口 |----|
66
③①①③ |①---|
口口口口 |②-③-|
④口口④ |--④-|
口②②口 |----|
67
口④口⑤ |①-②-|
①口③口 |③-④-|
口②口口 |--⑤-|
⑥口口口 |⑥---|
68
①口④口 |①-②-|
口口口口 |③-④-|
口②口口
口口③口

⑦⑦口口
口口⑥口
口口口⑤ |--⑤-|
口口口口 |⑥-⑦-|
69
口口①① |----|
②②口口 |①---|
口口③③ |②---|
口口口口 |③---|
70
口口口口 |①---|
口口口口 |----|
口口口口 |----|
①①口口 |----|
71
口口①① |----|
口②②口 |①-②-|
③③口口 |③---|
口口口④ |④---|
72
①④①④ |①--②|
⑤②⑤② |--③-|
③⑥③⑥ |④--⑤|
口口口口 |--⑥-|
73
口口口口 |①--②|
口⑥⑤④ |--③-|
口口口口 |④--⑤|
①②③口 |--⑥-|
74
①④①④ |①--②|
口口口口 |--③-|
⑤②⑤② |④--⑤|
③⑥③⑥ |--⑥-|
75
口口口口 |①--②|
口①②③ |--③-|
口口口口 |④--⑤|
⑥⑤④口 |--⑥-|
76
①④①④ |①--②|
⑤②⑤② |--③-|
③⑥③⑥ |④--⑤|
口口口口 |--⑥-|
77
口口口口 |①--②|
口⑥⑤④ |--③-|
口口口口 |④--⑤|
①②③口 |--⑥-|
78
①④①④ |①--②|
口口口口 |--③-|
⑤②⑤② |④--⑤|
③⑥③⑥ |--⑥-|
79
①口④④ |①--②|
①③③② |--③-|
⑤口口② |④--⑤|
⑤⑥⑥口 |--⑥-|
80
①口口口 |①--②|
①口口口 |--③-|
口③③②
口口口②

⑥⑥④④
口口口口
⑤口口口 |④--⑤|
⑤口口口 |--⑥-|
81
口口口口 |①---|
口①①口 |----|
口口口口 |----|
口①①口 |----|

accuracy: 100%
最終更新:2022年05月05日 17:05