アットウィキロゴ
Samba Ramba
Y&Co. feat. Kanae Asaba

EXTREME

Level: 9.3
BPM: 160
Notes: 855

1
口口口口 |----|
口口口口 |----|
口口口口 |----|
口口口口 |----|
2
②口口口 |①--②|
口口口口 |--③-|
口口口③
口①①口

口口④口
口⑤口口
口口口口 |④--⑤|
口⑥⑥口 |--⑥-|
3
口④口② |①--②|
口口⑤口 |--③-|
③①①口 |④--⑤|
口⑥⑥口 |--⑥-|
4
②⑥⑥口 |①--②|
口口口口 |--③-|
③①①③ |④--⑤|
④口⑤④ |--⑥-|
5
①口⑧① |①-②-③-|
④②②④ |④-⑤-⑥-|
③⑤⑤③ |⑦-⑧-|
⑥⑦⑦⑥ |----|
6
②①⑤⑥ |①--②|
①②⑥⑤ |--③④|
⑦口③口 |⑤--⑥|
口④口⑧ |--⑦⑧|
7
②①⑤⑥ |①--②|
①②⑥⑤ |--③④|
口⑦口③ |⑤--⑥|
④口⑧口 |--⑦⑧|
8
②①⑤⑥ |①--②|
⑦②⑥口 |--③④|
①口③⑤ |⑤--⑥|
口④⑧口 |--⑦⑧|
9
②①⑤⑥ |①--②|
口②⑥③ |--③④|
①⑦口⑤ |⑤--⑥|
口④⑧口 |--⑦⑧|
10
②①⑤⑥ |①--②|
①②⑥⑤ |--③④|
⑦口③口 |⑤--⑥|
口④口⑧ |--⑦⑧|
11
②①⑤⑥ |①--②|
①②⑥⑤ |--③④|
口⑦口③ |⑤--⑥|
④口⑧口 |--⑦⑧|
12
②①⑤⑥ |①--②|
⑦②⑥口 |--③④|
①口③⑤ |⑤--⑥|
口④⑧口 |--⑦⑧|
13
②①口口 |①--②|
口②口③ |--③④|
①口口口
口④口口

口⑦⑤⑤
⑦口口口
口口口口 |⑤--⑥|
口口⑥⑥ |--⑦-|
14
⑥口④口 |①-②-|
口①①② |③-④-|
①①⑤⑤ |⑤---|
③口⑤⑤ |--⑥-|
15
口口⑥口 |--①-|
口口①⑤ |②-③-|
口②④口 |④-⑤-|
口⑦口③ |⑥-⑦-|
16
①口口① |①--②|
③⑥口③ |--③-|
⑤④口口 |④--⑤|
④⑤②口 |--⑥-|
17
②口口③ |①-②-|
口口①④ |③-④-|
口口①①
口口①①

⑥⑤口口
⑤口口口
口⑤口口 |⑤---|
⑤口口口 |--⑥-|
18
⑦口口⑦ |--①-|
口口口① |②-③-|
⑤②口口 |④-⑤-|
③④⑥口 |⑥-⑦-|
19
口②②口 |--①-|
口②②口 |--②-|
③①①③ |--③-|
①③③① |----|
20
③⑦⑤⑦ |①-②-|
口④口⑥ |③-④-|
口口口口 |⑤-⑥-|
②口口① |--⑦-|
21
②口④⑤ |--①-|
口④口③ |②-③-|
口口④口 |④---|
①④①口 |--⑤-|
22
口③④口 |①---|
③口口④ |②---|
②⑤口① |③---|
口②①口 |④-⑤-|
23
③口口口 |--①-|
口②口④ |②---|
①口②口 |----|
口①口口 |③-④-|
24
口口④⑥ |①-②-|
口③口⑥ |③-④-|
口口②口 |--⑤-|
⑤口口① |--⑥-|
25
①口口口 |①---|
①口②⑥ |--②③|
口③口② |④---|
③⑤④④ |⑤-⑥-|
26
①口③口 |①---|
口⑥⑥口 |②-③-|
口⑤⑤口 |--④-|
口④④② |⑤-⑥-|
27
⑦口口⑧ |①-②-|
⑤口口⑥ |③-④-|
③口口④ |⑤-⑥-|
①口口② |⑦-⑧-|
28
口⑦⑧口 |①-②-|
口⑤⑥口 |③-④-|
口③④口 |⑤-⑥-|
口①②口 |⑦-⑧-|
29
⑤口口口 |①②-③|
口口口⑤ |④-⑤-|
①③④②
①③④②

口口口⑥
⑥口口口
口口口口 |⑥---|
⑦口口⑧ |⑦-⑧-|
30
口③①④ |①---|
③①②④ |②-③-|
④②①③ |--④-|
④①③口 |----|
31
③⑤口④ |①-②-|
⑤①②口 |③-④-|
口②①⑥ |--⑤-|
④口⑥③ |⑥---|
32
①④①④ |①-②-|
口口口口 |③-④-|
口②口口
口口口③

口口⑦口
口口口⑦
口口口口 |--⑤-|
口⑥⑤口 |⑥-⑦-|
33
④⑦口② |①-②-|
⑦③⑤口 |③-④-|
③口口⑤ |⑤-⑥-|
①⑧⑥口 |⑦-⑧-|
34
③口①口 |①-②-|
口口口① |③-④-|
口口②口
④口口口

口口⑧口
⑦口⑤⑧
口⑦口口 |⑤-⑥-|
口口⑥⑥ |⑦-⑧-|
35
①①⑦④ |①-②-|
口⑤口⑦ |③-④-|
⑤⑥③③ |⑤-⑥-|
口②⑧口 |⑦-⑧-|
36
①①口口 |①---|
口口口口 |②-③-|
③口口②
③口口②

⑤口口④
⑤口口④
口口口口 |----|
口口口口 |④-⑤-|
37
⑧口①⑪ |①-②-|
口口③⑦ |③-④-|
⑥④口口 |⑤⑥⑦⑧|
⑩②⑤⑨ |⑨⑩⑪-|
38
口③①④ |①---|
③①②④ |②-③-|
④②①③ |--④-|
④①③口 |----|
39
③⑤口④ |①-②-|
⑤①②口 |③-④-|
口②①⑥ |--⑤-|
④口⑥③ |⑥---|
40
④口①口 |①-②-|
口③口② |③-④-|
①口③口
口②口④

口⑤⑦⑤
⑦口口口
口口口口 |--⑤-|
⑥口⑥口 |⑥-⑦-|
41
口④口口 |①-②-|
口③口口 |③-④-|
口口①③
口②口口

口口口口
口口⑤口
⑤⑦口口 |⑤-⑥-|
口⑧⑥⑦ |⑦-⑧-|
42
口口口口 |①---|
口口口口 |----|
口口①口 |----|
①口口口 |----|
43
②口口③ |----|
口①④④ |①-②-|
②①口③ |③---|
口①①口 |④---|
44
②①⑤⑥ |①--②|
①②⑥⑤ |--③④|
⑦口③口 |⑤--⑥|
口④口⑧ |--⑦⑧|
45
②①⑤⑥ |①--②|
①②⑥⑤ |--③④|
口⑦口③ |⑤--⑥|
④口⑧口 |--⑦⑧|
46
②①⑤⑥ |①--②|
⑦②⑥口 |--③④|
①口③⑤ |⑤--⑥|
口④⑧口 |--⑦⑧|
47
②①⑤⑤ |①--②|
口②口③ |--③④|
①⑧⑦口 |⑤--⑥|
口④⑥⑥ |--⑦⑧|
48
①⑥口⑥ |--①-|
②口口口 |②-③-|
③口口口 |④-⑤-|
④⑤口口 |--⑥-|
49
⑤⑤④口 |--①-|
口②④口 |②-③-|
④口④③ |④---|
口④口① |--⑤-|
50
口⑧⑥⑧ |①-②-|
口⑤④⑤ |③-④-|
口③⑦③ |⑤-⑥-|
②⑦①① |⑦-⑧-|
51
口口③口 |--①-|
口口口口 |②---|
①口口② |----|
①④口② |③-④-|
52
口口口口 |①-②-|
④③②① |③-④-|
④③②① |--⑤-|
⑥口口⑤ |--⑥-|
53
口②①① |①---|
②⑤③⑤ |--②③|
④口口③ |④---|
口④口口 |⑤---|
54
①③口① |①---|
口口口口 |②-③-|
③口口口
口②②口

口口口⑥
⑤口④口
口⑤⑥④ |--④-|
口口口口 |⑤-⑥-|
55
⑦口口⑧ |①-②-|
⑤口口⑥ |③-④-|
③口口④ |⑤-⑥-|
①口口② |⑦-⑧-|
56
口⑦⑧口 |①-②-|
口⑤⑥口 |③-④-|
口③④口 |⑤-⑥-|
口①②口 |⑦-⑧-|
57
⑤口口口 |①②-③|
口口口⑤ |④-⑤-|
①③④②
①③④②

口口口⑥
⑥口口口
口口口口 |⑥---|
⑦口口⑧ |⑦-⑧-|
58
口③①④ |①---|
③①②④ |②-③-|
④②①③ |--④-|
④①③口 |----|
59
③⑤口④ |①-②-|
⑤①②口 |③-④-|
口②①⑥ |--⑤-|
④口⑥③ |⑥---|
60
①④①④ |①-②-|
口口口口 |③-④-|
口②口口
口口口③

口口⑦口
口口口⑦
口口口口 |--⑤-|
口⑥⑤口 |⑥-⑦-|
61
④⑦口② |①-②-|
⑦③⑤口 |③-④-|
③口口⑤ |⑤-⑥-|
①⑧⑥口 |⑦-⑧-|
62
③口①口 |①-②-|
口口口① |③-④-|
口口②口
④口口口

口口⑧口
⑦口⑤⑧
口⑦口口 |⑤-⑥-|
口口⑥⑥ |⑦-⑧-|
63
①①⑦④ |①-②-|
口⑤口⑦ |③-④-|
⑤⑥③③ |⑤-⑥-|
口②⑧口 |⑦-⑧-|
64
①①口口 |①---|
口口口口 |②-③-|
③口口②
③口口②

⑤口口④
⑤口口④
口口口口 |----|
口口口口 |④-⑤-|
65
⑧口①⑪ |①-②-|
口口③⑦ |③-④-|
⑥④口口 |⑤⑥⑦⑧|
⑩②⑤⑨ |⑨⑩⑪-|
66
口③①④ |①---|
③①②④ |②-③-|
④②①③ |--④-|
④①③口 |----|
67
③⑤口④ |①-②-|
⑤①②口 |③-④-|
口②①⑥ |--⑤-|
④口⑥③ |⑥---|
68
④口①口 |①-②-|
口③口② |③-④-|
①口③口
口②口④

口⑤⑦⑤
⑦口口口
口口口口 |--⑤-|
⑥口⑥口 |⑥-⑦-|
69
口④口口 |①-②-|
口③口口 |③-④-|
口口①③
口②口口

口口口口
口口⑤口
⑤⑦口口 |⑤-⑥-|
口⑧⑥⑦ |⑦-⑧-|
70
口口口口 |①---|
口口口口 |----|
口口①口 |----|
①口口口 |----|
71
②口口③ |----|
口①④④ |①-②-|
②①口③ |③---|
口①①口 |④---|
72
②①⑤⑥ |①--②|
①②⑥⑤ |--③④|
⑦口③口 |⑤--⑥|
口④口⑧ |--⑦⑧|
73
②①⑤⑥ |①--②|
①②⑥⑤ |--③④|
口⑦口③ |⑤--⑥|
④口⑧口 |--⑦⑧|
74
②①⑤⑥ |①--②|
⑦②⑥口 |--③④|
①口③⑤ |⑤--⑥|
口④⑧口 |--⑦⑧|
75
②①⑤⑥ |①--②|
口②⑥③ |--③④|
①⑦口⑤ |⑤--⑥|
口④⑧口 |--⑦⑧|
76
②①⑤⑥ |①--②|
①②⑥⑤ |--③④|
⑦口③口 |⑤--⑥|
口④口⑧ |--⑦⑧|
77
②①⑤⑥ |①--②|
①②⑥⑤ |--③④|
口⑦口③ |⑤--⑥|
④口⑧口 |--⑦⑧|
78
②①⑤⑥ |①--②|
⑦②⑥口 |--③④|
①口③⑤ |⑤--⑥|
口④⑧口 |--⑦⑧|
79
①①口口 |①--②|
口口口③ |--③④|
②②口口
口④口口

口⑦⑤⑤
口口口口
口口⑥⑥ |⑤--⑥|
口口口⑧ |--⑦⑧|
80
口口③口 |①--②|
①①口口 |--③④|
②②口口
④口口口

口口口⑧
⑦口⑤⑤
口口⑥⑥ |⑤--⑥|
口口口口 |--⑦⑧|
81
①①口口 |①---|
口口口口 |----|
口口口口 |----|
口口①① |----|

accuracy: 100%
最終更新:2022年05月05日 17:28