アットウィキロゴ
Welcome to the Mosh Pit
lapix

ADVNACED

Level: 9.6
BPM: 172
Notes(hold): 737(71)

1
口口口口 |----|
口口口口 |----|
口口口口 |----|
口口①① |①---|
2
③口口口 |①---|
口①口① |②---|
②口⑤④ |③---|
口口口口 |④-⑤-|
3
口④口① |--①-|
④⑤②口 |②-③-|
⑤③口口 |--④-|
口口口口 |--⑤-|
4
①口①口 |----|
口口口口 |----|
②口②口 |①---|
口口口口 |②---|
5
口①口口 |①-②-|
口口②口 |③-④-|
口③口口 |----|
⑤⑤④口 |⑤---|
6
口口口③ |①---|
①口①口 |②---|
④⑤口② |③---|
口口口口 |④-⑤-|
7
①口④口 |--①-|
口②⑤④ |②-③-|
口口③⑤ |--④-|
口口口口 |--⑤-|
8
口①口① |----|
口口口口 |----|
口②口② |①---|
口口口口 |②---|
9
口口①口 |①-②-|
口②口口 |③-④-|
口口③口 |----|
口④口口 |----|
10
口①口口 |①-②-|
∨|口口 |③-④-|
|∧口口 |⑤-⑥-|
①口口口 |----|

口②③口
口∨|口
口|∧口
②③口口

口口④⑤
口口∨|
口口|∧
口④⑤口

口口口⑥
口口口口
口口口口
口口⑥口
11
①―<口 |①-②-|
口口口口 |③-④-|
口口口口 |⑤-⑥-|
口>―① |----|

②∨口口
口|③口
口③|口
口口∧②

口口口∨
⑤口④|
|④口⑤
∧口口口

口口口口
⑥口口口
口口口⑥
口口口口
12
口口①口 |①-②-|
口口|∨ |③-④-|
口口∧| |⑤-⑥-|
口口口① |----|

口③②口
口|∨口
口∧|口
口口③②

⑤④口口
|∨口口
∧|口口
口⑤④口

⑥口口口
口口口口
口口口口
口⑥口口
13
口>―① |①-②-|
口口口口 |③-④-|
口口口口 |⑤-⑥-|
①―<口 |----|

口口∨②
口③|口
口|③口
②∧口口

∨口口口
|④口⑤
⑤口④|
口口口∧

口口口口
口口口⑥
⑥口口口
口口口口
14
口⑤①① |①-②-|
②口口口 |③---|
⑥口④④ |④-⑤-|
口③口口 |⑥---|
15
口口⑥口 |①-②-|
①①口③ |③---|
口口口⑤ |④-⑤-|
④④②口 |⑥---|
16
口①口口 |①-②-|
口口②口 |③-④-|
⑥③口⑤ |⑤-⑥-|
口口④口 |⑦⑧⑨⑩|

⑩⑨⑧⑦
口口口口
口口口口
口口口口
17
口⑥⑥口 |①-②-|
④⑥⑥① |③-④-|
口⑤②⑤ |⑤---|
⑤③⑤口 |⑥---|
18
口口口① |①---|
口口口| |②---|
口口口∧ |③---|
口口口口 |④---|

④口口②
口③③口
口口口口
④②②口
19
口口口口 |①---|
口口口∨ |②---|
口口口| |③---|
口口口① |④---|

口②②口
口口④④
口③③口
口口口②
20
①口口口 |①---|
|口口口 |②---|
∧口口口 |③---|
口口口口 |④---|

②口口④
口③③口
口口口口
口②②④
21
⑦②③⑦ |①-②-|
①口口④ |③-④-|
⑧⑥⑤⑧ |⑤-⑥-|
口口口口 |⑦-⑧-|
22
口①口口 |①---|
口|口口 |②---|
口∧口口 |③---|
口口口口 |④---|

④②口口
口口③口
④③口口
口②②口
23
口口①口 |①---|
口口|口 |②---|
口口∧口 |③---|
口口口口 |④---|

口口②④
口③口口
口口③④
口②②口
24
口①口口 |①---|
①⑤②口 |②-③-|
④口⑥口 |④-⑤-|
口③口口 |⑥---|
25
①口②口 |①-②-|
口⑤⑤口 |③-④-|
口③口④ |⑤---|
口⑥⑥口 |⑥---|
26
①①⑧② |①-②-|
口口③⑥ |③-④-|
口④⑦口 |⑤-⑥-|
口口口⑤ |⑦-⑧-|
27
④⑧口口 |①-②-|
口②⑥口 |③-④-|
③⑦口口 |⑤-⑥-|
口①⑤口 |⑦-⑧-|
28
②⑧①① |①-②-|
⑥③口口 |③-④-|
口⑦④口 |⑤-⑥-|
⑤口口口 |⑦-⑧-|
29
①口口③ |①-②-|
⑤①③⑤ |③-④-|
口口口口 |⑤---|
④⑥⑥② |⑥---|
30
①①⑧② |①-②-|
口口③⑥ |③-④-|
口④⑦口 |⑤-⑥-|
口口口⑤ |⑦-⑧-|
31
④⑧口口 |①-②-|
口②⑥口 |③-④-|
③⑦口口 |⑤-⑥-|
口①⑤口 |⑦-⑧-|
32
②口口① |①-②-|
②口口① |③-④-|
口口口口 |⑤⑥⑦⑧|
④④③③ |⑨⑩⑪⑫|

口口口口
⑫⑪⑩⑨
⑧⑦⑥⑤
口口口口
33
口①口② |①-②-|
口口口口 |③-④-|
口口口口 |⑤---|
口③口④ |⑥---|

口⑥⑥口
口⑥⑥口
口⑤口⑤
⑤口⑤口
34
①⑧④④ |①--②|
①⑦口② |--③-|
口⑥②口 |④---|
③⑤口口 |⑤⑥⑦⑧|
35
②口口③ |①--②|
②口口口 |--③-|
口口口① |④---|
④④①口 |⑤⑥⑦⑧|

口口⑧口
口口⑦口
口口⑥口
口口⑤口
36
④①口④ |①--②|
①口口② |--③-|
口口口② |④---|
口③口口 |⑤⑥⑦⑧|

口口口口
⑤⑥⑦⑧
口口口口
口口口口
37
口①①口 |①--②|
口④④口 |--③-|
②⑤⑤③ |--④-|
口②③口 |⑤---|
38
口①④口 |①--②|
①口口④ |--③-|
⑥口口③ |④--⑤|
口②⑤口 |--⑥-|
39
①口口④ |①--②|
口①④口 |--③-|
⑥口口③ |④--⑤|
口②⑤口 |--⑥-|
40
①①③③ |①--②|
②②④④ |--③-|
⑤口⑤口 |-④--|
⑥口⑥口 |⑤--⑥|
41
口⑥⑥口 |--①-|
③④④⑤ |-②--|
口①口① |③-④⑤|
口②口② |⑥---|
42
①口口① |①---|
口口口口 |----|
口口口口 |----|
口口口口 |----|
43
口口口口 |①---|
口口口口 |----|
①口口① |----|
口口口口 |----|
44
口口口口 |①---|
①口口① |----|
口口口口 |----|
口口口口 |----|
45
口口口口 |①---|
口口口口 |----|
口口口口 |----|
①口口① |----|
46
口口⑤口 |①-②-|
口①口⑤ |③---|
④口④② |④---|
口③口口 |⑤---|
47
口口口① |①-②-|
口②⑤口 |③---|
口⑤口③ |④---|
④口④口 |⑤---|
48
口口①口 |①-②-|
②⑤口口 |③---|
⑤口③口 |④---|
口④口④ |⑤---|
49
口①口口 |①-②-|
口口⑥② |③---|
口③口⑤ |④---|
④口④口 |⑤-⑥-|
50
①①口② |①---|
③口口口 |----|
口口口口 |②---|
口④口口 |③-④-|
51
④④①口 |--①-|
口②⑤⑤ |②-③-|
⑥⑥③口 |--④-|
口口口口 |⑤-⑥-|
52
口口①口 |----|
口口口口 |----|
口口口口 |①---|
口②③口 |②-③-|
53
口口口口 |①-②-|
①②③④ |③-④-|
口口口口 |----|
⑤⑤口口 |⑤---|
54
口口口③ |①---|
①口①口 |②---|
口②口口 |③---|
④⑤口口 |④-⑤-|
55
②口口口 |①-②-|
口③口口 |③-④-|
口口④① |--⑤-|
口口口口 |⑥-⑦-|

口口⑤口
口口⑦⑤
⑥口口⑦
口口口口
56
口③口口 |①---|
①口④口 |②---|
口⑤口口 |③-④-|
②口⑥口 |⑤-⑥-|
57
口⑤⑤口 |①-②-|
②口口① |③-④-|
④⑥⑥③ |⑤---|
口口口口 |⑥---|
58
口口口① |①-②-|
口口口| |③-④-|
口口口∧ |⑤-⑥-|
①口口口 |⑦---|

口③口②
口|口口
口∧口口
口③口口

口④⑤口
口口|口
⑤口∧口
口口口口

口口⑥口
口口口口
口⑦⑦口
口口口口
59
①口口口 |①-②-|
口口口∨ |③-④-|
口口口| |⑤-⑥-|
口口口① |⑦---|

口③口口
口∨口口
口|口口
口③口②

口口口口
⑤口∨口
口口|口
口④⑤口

口口口口
口⑦⑦口
口口口口
口口⑥口
60
口口口① |①-②-|
口口口| |③-④-|
口口口∧ |⑤-⑥-|
①口口口 |⑦---|

口③口②
口|口口
口∧口口
口③口口

口④⑤口
口口|口
⑤口∧口
口口口口

口口⑥口
口口口口
口⑦⑦口
口口口口
61
①口口口 |①-②-|
口口口∨ |③-④-|
口口口| |⑤-⑥-|
口口口① |⑦---|

口③口口
口∨口口
口|口口
口③口②

口口口口
⑤口∨口
口口|口
口④⑤口

口口口口
口⑦⑦口
口口口口
口口⑥口
62
口⑤①① |①-②-|
②口口口 |③---|
⑥口④④ |④-⑤-|
口③口口 |⑥---|
15
口口⑥口 |①-②-|
①①口③ |③---|
口口口⑤ |④-⑤-|
④④②口 |⑥---|
16
口①口口 |①-②-|
口口②口 |③-④-|
⑥③口⑤ |⑤-⑥-|
口口④口 |⑦⑧⑨⑩|

⑩⑨⑧⑦
口口口口
口口口口
口口口口
17
口⑥⑥口 |①-②-|
④⑥⑥① |③-④-|
口⑤②⑤ |⑤---|
⑤③⑤口 |⑥---|
66
口口口口 |①-②③|
口>―① |--④-|
口口口口 |⑤-⑥⑦|
口口口口 |--⑧-|

口口口④
②口口②
⑤―<口
口③口口

口⑧口口
口口⑥口
⑥口口口
口口口⑦
67
口口口口 |①-②③|
口口口口 |--④-|
口>―① |⑤-⑥⑦|
口口口口 |--⑧-|

口口口口
口③口口
口口口②
②口④口

口口口口
⑤―<口
口口口口
口口口口

⑧口口口
⑥口口⑥
口⑦口口
口口口口
68
口口①口 |①-②③|
口口|口 |--④-|
口口∧口 |⑤-⑥⑦|
口口口口 |--⑧-|

口口②口
口∨口④
②|口口
口⑤③口

口口口⑥
⑧口口口
口口⑦口
口⑥口口
69
④⑤⑥⑦ |①--②|
口②①口 |--③-|
②⑧⑧① |④⑤⑥⑦|
⑨③③⑨ |⑧-⑨-|
70
口口口口 |①-②③|
①―<口 |--④-|
口口口口 |⑤-⑥⑦|
口口口口 |--⑧-|

④口口口
②口口②
口>―⑤
口口③口

口口⑧口
口⑥口口
口口口⑥
⑦口口口
71
口口口口 |①-②③|
口口口口 |--④-|
①―<口 |⑤-⑥⑦|
口口口口 |--⑧-|

口口口口
口口③口
②口口口
口④口②

口口口口
口>―⑤
口口口口
口口口口

口口口⑧
⑥口口⑥
口口⑦口
口口口口
72
口①口口 |①-②③|
口|口口 |--④-|
口∧口口 |⑤-⑥⑦|
口口口口 |--⑧-|

口②口口
④口∨口
口口|②
口③⑤口

⑥口口口
口口口⑧
口⑦口口
口口⑥口
73
口②②口 |①--②|
④⑤⑥⑦ |--③-|
①口③口 |④⑤⑥⑦|
口①口③ |⑧-⑨-|

⑧口口⑧
口口口口
⑨口口⑨
口口口口
74
―①口 |①-②-|
口口口口 |③-④-|
口口口口 |⑤-⑥-|
口口口口 |⑦-⑧-|

口口②口
③―<口
口口口口
口口口口

口口口口
④口口口
―⑤口
口口口口

口口口口
口口口口
口口⑥口
⑦―<口

口口口口
口口口口
口口口口
⑧口口口
75
口口⑤口 |①-②-|
⑩②⑥① |③-④-|
⑩口⑦⑨ |⑤⑥⑦⑧|
口③⑧④ |⑨-⑩-|
76
口①―< |①-②-|
口口口口 |③-④-|
口口口口 |⑤-⑥-|
口口口口 |⑦-⑧-|

口②口口
口>―③
口口口口
口口口口

口口口口
口口口④
口⑤―<
口口口口

口口口口
口口口口
口⑥口口
口>―⑦

口口口口
口口口口
口口口口
口口口⑧
77
口口口口 |①-②-|
①口②口 |③-④-|
口口口口 |⑤⑥⑦⑧|
④口③口 |⑨-⑩-|

口⑤口口
口⑥⑩口
⑨⑦口口
口⑧口⑩
78
口口口① |①-②-|
口口口| |③-④-|
口口口∧ |⑤-⑥-|
口口口口 |⑦-⑧-|

口口∨②
口口|口
口口③口
口口口口

口⑤口口
口|口口
口∧④口
口口口口

∨⑥口口
|口口口
⑦口口口
口口口口

口口口口
口口口口
⑧口口口
口口口口
79
口④⑨① |①-②-|
⑤⑥⑦⑧ |③-④-|
口③口② |⑤⑥⑦⑧|
口⑩⑩口 |⑨-⑩-|
80
①口口口 |①-②-|
|口口口 |③-④-|
∧口口口 |⑤-⑥-|
口口口口 |⑦-⑧-|

②∨口口
口|口口
口③口口
口口口口

口口⑤口
口口|口
口④∧口
口口口口

口口⑥∨
口口口|
口口口⑦
口口口口

口口口口
口口口口
口口口⑧
口口口口
81
口口口口 |①-②-|
口④口③ |③-④-|
口口口口 |⑤⑥⑦⑧|
口①口② |⑨⑩⑪⑫|

口口口口
口口口口
⑤⑥⑦⑧
⑨⑩⑪⑫
82
口④口③ |①---|
②④①① |②-③-|
②口口⑤ |④-⑤-|
口口口口 |⑥-⑦-|

⑦口⑥口
口口⑥口
口口口口
口口口口
83
口⑥⑥口 |①-②-|
④⑥⑥① |③-④-|
口⑤②⑤ |⑤---|
⑤③⑤口 |⑥---|
84
口口口① |①---|
口口口| |②---|
口口口∧ |③---|
口口口口 |④---|

④口口②
口③③口
口口口口
④②②口
85
口口口口 |①---|
口口口∨ |②---|
口口口| |③---|
口口口① |④⑤⑥⑦|

口②②口
⑦⑥⑤④
口③③口
口口口②

口口口口
口口口口
口口口口
口口口口
86
口①①口 |①---|
口口口口 |----|
口口口口 |----|
口口口口 |----|
最終更新:2019年11月08日 02:33