アットウィキロゴ
Welcome to the Mosh Pit
lapix

EXTREME

Level: 10.6
BPM: 172
Notes(hold): 1020(92)

1
④口口口 |----|
口③口口 |----|
②口口口 |----|
口①口口 |①②③④|
2
口口①① |①---|
口口口① |②---|
⑥⑤④③ |③④⑤⑥|
口口②② |⑦-⑧-|

⑧⑧口⑦
⑧口口口
口口口口
口口口口
3
⑥⑥⑥⑥ |--①-|
④口①③ |②-③-|
口⑤⑤口 |--④-|
④②口③ |⑤-⑥-|
4
口口口口 |----|
口①②口 |----|
口口口口 |①-②-|
口③④口 |③-④-|
5
口口④⑨ |①②③-|
口⑤⑧④ |④-⑤-|
①②③⑦ |----|
⑤口⑥口 |⑥⑦⑧⑨|
6
①①口口 |①---|
①口口口 |②---|
③④⑤⑥ |③④⑤⑥|
②②口口 |⑦-⑧-|

⑦口⑧⑧
口口口⑧
口口口口
口口口口
7
⑥⑥⑥⑥ |--①-|
③①口④ |②-③-|
口⑤⑤口 |--④-|
③口②④ |⑤-⑥-|
8
口口口口 |----|
口②①口 |----|
口口口口 |①-②-|
口④③口 |③-④-|
9
口④⑦口 |①②③-|
④⑥⑤⑧ |④-⑤-|
口③②① |--⑥⑦|
口口口⑤ |⑧-⑨-|

口口口口
口口口口
口口⑨口
口口口口
10
口①口③ |①-②-|
①∧③∧ |③-④-|
∧口∧口 |⑤---|
②②④④ |⑥---|

⑤②口④
②⑤④口
⑥口口口
口口口口
11
口①<② |①-②-|
①<②口 |③-④-|
口③<④ |⑤---|
③<④口 |⑥---|

⑤②口口
②⑤口口
口④⑥口
④口口口
12
③口①口 |①-②-|
∧③∧① |③-④-|
口∧口∧ |⑤---|
④④②② |⑥---|

④口②⑤
口④⑤②
口口口⑥
口口口口
13
②>①口 |①-②-|
口②>① |③-④-|
④>③口 |⑤---|
口④>③ |⑥---|

口口②⑤
口口⑤②
口口④口
⑥口⑥④
14
④②口口 |①-②-|
①口⑤① |③-④-|
③⑤口③ |⑤-⑥-|
⑥口⑥② |⑦-⑧-|

口口⑧口
⑦口口口
口口⑦口
口口口口
15
⑧④口② |①-②-|
⑤①⑥③ |③-④-|
⑦③口① |⑤-⑥-|
⑥②⑤⑦ |⑦-⑧-|
16
口口⑦⑤ |①②③④|
⑨③⑪① |⑤⑥⑦⑧|
口⑥④⑧ |⑨⑩⑪⑫|
⑫②⑩口 |⑬⑭⑮⑯|

口⑭口口
口口口⑬
⑯口口口
口口口⑮
17
①口④② |①-②-|
口口⑤⑤ |③-④-|
口⑤⑤③ |⑤---|
口⑤口口 |⑥---|

⑥⑥口口
⑥⑥口口
⑥口口口
口口口口
18
口口∨∨ |①---|
口口口口 |②---③-|
口口口口 |④---|
口口①① |⑤---|

⑤口②口
⑤口口④
⑤③口④
⑤口②②
19
口∨∨口 |①---|
口口口口 |②---③-|
口口口口 |④---|
口①①口 |⑤⑥⑦⑧|

口②口口
④⑤口⑥
④⑦③⑧
口②②口
20
∨∨口口 |①---|
口口口口 |②---③-|
口口口口 |④---|
①①口口 |⑤---|

口②口⑤
④口口⑤
④口③⑤
②②口⑤
21
①口⑧口 |①-②-|
⑤②口⑧ |③-④-|
⑥⑨③口 |⑤⑥⑦-|
⑦④⑨口 |⑧-⑨-|
22
①①口口 |①---|
口口口口 |②---③-|
口口口口 |④---|
∧∧口口 |⑤---|

②②口⑤
④口③口
④口⑤口
口②口口
23
口①①口 |①---|
口口口口 |②---③-|
口口口口 |④---|
口∧∧口 |⑤⑥⑦⑧|

口②②口
⑧③⑦④
⑥口⑤④
口口②口
24
口⑦①① |①---|
口③⑥口 |②-③-|
口⑤口口 |④-⑤-|
②口④口 |⑥-⑦-|
25
口⑦⑧⑥ |①②③-|
④④⑨① |④-⑤-|
⑫⑪⑩② |⑥-⑦⑧|
口⑤⑤③ |⑨⑩⑪⑫|
26
⑤⑦⑤口 |①-②-|
③①⑦① |③-④-|
⑧口口④ |⑤-⑥-|
口③⑥② |⑦-⑧-|
27
④⑦⑤⑤ |①-②-|
口①口③ |③-④-|
⑦口③⑧ |⑤-⑥-|
①⑥口② |⑦-⑧-|
28
⑤口口口 |①-②-|
③口③② |③-④-|
口⑥⑤口 |⑤-⑥-|
①④①口 |⑦-⑧-|

口口口口
口⑦口口
口口口口
⑦口口⑧
29
口②①口 |①-②-|
②⑥⑤① |③-④-|
③⑦⑧④ |⑤⑥⑦⑧|
口③④口 |⑨-⑩-|

⑨口⑨口
口口口口
口口口口
口口口⑩
30
⑤①口① |①-②-|
口口③⑥ |③-④-|
⑦⑤口③ |⑤-⑥-|
④②⑦口 |⑦-⑧-|

口⑧口口
口口口口
口口口口
口口口口
31
⑤⑦⑦② |①-②-|
③⑤③口 |③-④-|
口口①① |⑤-⑥-|
⑧④口⑥ |⑦-⑧-|
32
口口口口 |①-②-|
⑫⑩⑧⑥ |③-④-|
④③②① |⑤⑥⑦⑧|
⑪⑨⑦⑤ |⑨⑩⑪⑫|
33
①口④② |①-②-|
口口⑤⑤ |③-④-|
口⑤⑤③ |⑤---|
口⑤口口 |⑥---|

⑥⑥口口
⑥⑥口口
⑥口口口
口口口口
34
>━━① |①--②|
口口口∨ |--③-|
口口口口 |④⑤⑥⑦|
③口<② |⑧⑨⑩⑪|

口⑪④②
口⑩⑤口
口⑨⑥口
④⑧⑦③
35
①>口② |①--②|
口口口∨ |--③-|
口口口口 |④⑤⑥⑦|
∧口口③ |⑧⑨⑩⑪|

②口口③
⑪⑩⑨⑧
④⑤⑥⑦
口口口④
36
②>口③ |①--②|
口口口口 |--③-|
∧口口口 |④⑤⑥⑦|
①口口< |⑧⑨⑩⑪|

③⑦⑧④
口⑥⑨口
口⑤⑩口
②④⑪口
37
③口口∨ |①--②|
口口口口 |--③-|
∧口口口 |④-⑤⑥|
②口<① |-⑦⑧-|

④口④口
⑦口口⑤
口⑥口口
③⑧口②
38
口①③③ |①--②|
口④口口 |--③-|
②口口① |④--⑤|
⑤口口④ |--⑥-|

⑥⑥口口
口口口口
口口口口
口口口口
39
口口⑤④ |①--②|
②口口① |--③-|
⑥④⑥口 |④--⑤|
口①③③ |--⑥-|
40
①①④口 |①--②|
口④⑤④ |--③-|
口③口② |-④--|
⑤②口③ |⑤--⑥|

口⑥口口
口口口口
⑥口⑥口
口口口口
41
①⑦⑦① |--①-|
⑥⑤④③ |-②--|
口⑦⑦口 |③④⑤⑥|
口②②口 |⑦---|
42
口口口口 |①---|
口口口口 |----|
口口口口 |----|
①口口① |----|
43
①口口① |①---|
口口口口 |----|
口口口口 |----|
口口口口 |----|
44
口口口口 |①---|
口口口口 |----|
①口口① |----|
口口口口 |----|
45
口口口口 |①---|
①口口① |----|
口口口口 |----|
口口口口 |----|
46
⑨⑨口口 |①-②-|
④⑤①⑧ |③-④⑤|
口②⑦口 |⑥⑦⑧-|
⑩⑥③口 |⑨-⑩-|
47
⑨⑨口口 |①-②-|
④⑤①⑧ |③-④⑤|
口②⑦口 |⑥⑦⑧-|
⑩⑥③口 |⑨-⑩-|
48
⑨⑨口口 |①-②-|
④⑤①⑧ |③-④⑤|
口②⑦口 |⑥⑦⑧-|
⑩⑥③口 |⑨-⑩-|
49
⑫口①① |①-②③|
②⑪⑤⑧ |④-⑤-|
⑩③口⑦ |⑥⑦⑧-|
口⑨④⑥ |⑨⑩⑪⑫|
50
口口口① |①---|
口口口口 |②---|
⑥⑤④③ |③④⑤⑥|
口口口② |⑦-⑧-|

⑧口口⑦
口口口口
口口口口
口口口口
51
⑥口口⑥ |--①-|
④口①③ |②-③-|
口⑤⑤口 |--④-|
④②口③ |⑤-⑥-|
52
口口口口 |----|
口①②口 |----|
口口口口 |①-②-|
口③④口 |③-④-|
53
口口④⑨ |①②③-|
口⑤⑧④ |④-⑤-|
①②③⑦ |----|
⑤口⑥口 |⑥⑦⑧⑨|
54
①①口口 |①---|
①口口口 |②---|
③④⑤⑥ |③④⑤⑥|
②②口口 |⑦-⑧-|

⑦口⑧⑧
口口口⑧
口口口口
口口口口
55
⑧⑧⑧⑧ |①-②-|
④②口⑥ |③-④-|
⑤⑦⑦口 |⑤-⑥-|
④①③⑥ |⑦-⑧-|
56
口口口口 |①---|
口④③口 |②---|
②口口① |③-④-|
口⑥⑤口 |⑤-⑥-|
57
口⑥⑦口 |①②③④|
⑤⑩⑪⑧ |⑤⑥⑦⑧|
⑨②③⑫ |⑨⑩⑪⑫|
①⑬⑬④ |⑬---|
58
①>口③ |①-②-|
口口口∨ |③-④-|
∧口口口 |⑤-⑥-|
③口<① |⑦⑧⑨⑩|

②口口④
∨口口∨
⑤口口⑤
④口口②

口⑦口口
口⑧口口
⑥⑨口⑥
口⑩口口
59
①口<③ |①-②-|
∨口口口 |③-④-|
口口口∧ |⑤-⑥-|
③>口① |⑦⑧⑨⑩|

②口口④
∨口口∨
⑤口口⑤
④口口②

口口⑦口
口口⑧口
⑥口⑨⑥
口口⑩口
60
①>口③ |①-②-|
口口口∨ |③-④-|
∧口口口 |⑤-⑥-|
③口<① |⑦⑧⑨⑩|

②口口④
∨口口∨
⑤口口⑤
④口口②

口⑦口口
口口⑧口
⑥⑨口⑥
口口⑩口
61
①口<③ |①-②-|
∨口口口 |③-④-|
口口口∧ |⑤---|
③>口① |⑥⑦⑧⑨|

②口⑥④
口⑦口口
⑤口⑧⑤
④⑨口②
62
④②口口 |①-②-|
①口⑤① |③-④-|
③⑤口③ |⑤-⑥-|
⑥口⑥② |⑦-⑧-|

口口⑧口
⑦口口口
口口⑦口
口口口口
63
⑧④口② |①-②-|
⑤①⑥③ |③-④-|
⑦③口① |⑤-⑥-|
⑥②⑤⑦ |⑦-⑧-|
64
口口⑦⑤ |①②③④|
⑨③⑪① |⑤⑥⑦⑧|
口⑥④⑧ |⑨⑩⑪⑫|
⑫②⑩口 |⑬⑭⑮⑯|

口⑭口口
口口口⑬
⑯口口口
口口口⑮
65
①口④② |①-②-|
口口⑤⑤ |③-④-|
口⑤⑤③ |⑤---|
口⑤口口 |⑥---|

⑥⑥口口
⑥⑥口口
⑥口口口
口口口口
66
口口口口 |①-|
∨口口口
┃口口口
①口口口

>━⑦② |②③|
口口口⑤ |-④⑤⑥|
口⑥口③ |⑦-|
②口④口

口⑨⑧口
口口口口
⑧口⑩口 |⑧⑨|
口⑪口⑫ |-⑩⑪⑫|
67
口口口口 |①-|
①口口口
┃口口口
∧口口口

口口口④ |②③|
②⑤②⑥ |-④⑤⑥|
口口口③ |⑦-|
>━⑦口

⑧口口口
口口⑪口
⑩⑨口口 |⑧⑨|
口口⑧⑫ |-⑩⑪⑫|
68
口①━< |①-|
口口口口
口口口口
口口口口

口②口③ |②③|
口口口口
口口②口
口口口口

口口口∨
⑥④口┃ |-④⑤⑥|
口口口⑦ |⑦-|
⑤口口口

⑨口口口
口口⑩口
⑪⑧⑫⑧ |⑧⑨|
口口口口 |-⑩⑪⑫|
69
口⑦⑪口 |①--②|
③⑩⑥① |--③-|
口⑤口⑨ |④⑤⑥⑦|
⑧②④口 |⑧⑨⑩⑪|
70
口口口口 |①-|
口口口∨
口口口┃
口口口①

②⑦━< |②③|
⑤口口口 |-④⑤⑥|
③口⑥口 |⑦-|
口④口②

口⑧⑨口
口口口口
口⑩口⑧ |⑧⑨|
⑫口⑪口 |-⑩⑪⑫|
71
口口口口 |①-|
口口口①
口口口┃
口口口∧

④口口口 |②③|
⑥②⑤② |-④⑤⑥|
③口口口 |⑦-|
口⑦━<

口口口⑧
口⑪口口
口口⑨⑩ |⑧⑨|
⑫⑧口口 |-⑩⑪⑫|
72
>━①口 |①-|
口口口口
口口口口
口口口口

③口②口 |②③|
口口口口
口②口口
口口口口

∨口口口
┃口④⑥ |-④⑤⑥|
⑦口口口 |⑦-|
口口口⑤

口口口⑨
口⑩口口
⑧口⑧口 |⑧⑨|
口⑫⑪口 |-⑩⑪⑫|
73
口③③口 |①--②|
①⑥⑤口 |--③-|
⑦口口④ |④⑤⑥⑦|
⑧⑨⑩② |⑧⑨⑩⑪|

口口口口
口口口口
口口口口
口口口⑪
74
①⑤②口 |①-②-|
∧∧口④ |③-④-|
口③<⑥ |⑤-⑥-|
口口口口 |⑦-⑧-|

③⑦口口
∨口口口
⑦⑤口口
口口⑧口
75
④口⑤① |①②③④|
口③②⑥ |⑤⑥⑦⑧|
①⑪⑦⑩ |⑨⑩⑪⑫|
⑬⑨⑫⑧ |⑬⑭⑮⑯|

⑯口口口
⑮口口口
⑭口口口
口口口口
76
口④⑤① |①-②-|
口②∧∧ |③-④-|
⑥>③口 |⑤-⑥-|
口口口口 |⑦-⑧-|

口口⑦③
口口口∨
口⑧⑤⑦
口口口口
77
①⑧⑨④ |①②③④|
⑤②③口 |⑤⑥⑦⑧|
⑩口⑦① |⑨⑩⑪⑫|
⑫⑥⑪⑬ |⑬⑭⑮⑯|

口口口⑯
口口口⑮
口口口⑭
口口口口
78
口口口口 |①-②-|
①⑤④口 |③-④-|
∧∧②⑥ |⑤-⑥-|
口③<口 |⑦-⑧-|

口口⑧口
③⑦口口
∨口口口
⑦⑤口口
79
⑨⑭⑬⑤ |①②③④|
④⑩⑥① |⑤⑥⑦⑧|
⑪③②⑦ |⑨⑩⑪⑫|
①⑫⑧口 |⑬⑭⑮⑯|

口口口口
口口口口
口⑯⑮口
口口口口
80
⑥口口口 |①-②-|
②口⑤① |③-④-|
口口∧∧ |⑤-⑥-|
④>③口 |⑦-⑧-|

口口口口
口口⑦③
口⑧口∨
口口⑤⑦
81
⑦②③⑧ |①②③④|
①⑨⑪④ |⑤⑥⑦⑧|
⑤口口⑥ |⑨⑩⑪⑫|
口⑫⑩① |⑬⑭⑮⑯|

口口口口
⑬口口⑯
口⑭⑮口
口口口口
82
②①④口 |①---|
⑤口口口 |②-③-|
①口口③ |④-⑤-|
②口④口 |⑥-⑦-|

口⑥口口
口口口口
⑦口口口
口⑥口口
83
①口④② |①-②-|
口口⑤⑤ |③-④-|
口⑤⑤③ |⑤---|
口⑤口口 |⑥---|

⑥⑥口口
⑥⑥口口
⑥口口口
口口口口
84
口口∨∨ |①---|
口口口口 |②---③-|
口口口口 |④---|
口口①① |⑤---|

⑤口②口
⑤口口④
⑤③口④
⑤口②②
85
口∨∨口 |①---|
口口口口 |②---③-|
口口口口 |④---|
口①①口 |⑤⑥⑦⑧|

口②口口
④⑤口⑥
④⑦③⑧
口②②口
86
①①①① |①---|
口口口口 |----|
口口口口 |----|
口口口口 |----|
最終更新:2019年12月28日 04:58