アットウィキロゴ
Glitter Cube
BEMANI Sound Team "dj TAKA"

EXTREME

Level: 10.2
BPM: 150
Notes(hold): 814(28)

1
口口口口 |----|
口口口口 |----|
口口口口 |----|
口口口口 |----|
2
口①口口 |①--②|
口口②口 |-③-④|
⑤③口① |⑤---|
④口口口

⑥⑥口口
口口口⑦
口口口⑧
口口口口 |⑥-⑦⑧|
3
⑥口②口 |①--②|
⑦③①口 |-③-④|
④⑤口口 |⑤---|
口口①口 |⑥⑦--|
4
口①口口 |①--②|
口口②口 |-③-④|
⑤③口① |⑤---|
④口口口

⑥⑥口口
口口口⑦
口口口⑧
口口口口 |⑥-⑦⑧|
5
口口②口 |①--②|
口③①⑥ |-③-④|
④⑤口口 |⑤-⑥-|
口口①口

口口口口
口口口口
口口口口
⑦⑧⑨⑩ |⑦⑧⑨⑩|
6
①①⑤④ |①-②-|
⑧③口⑦ |③-④⑤|
③⑧口② |⑥-⑦-|
⑥⑥⑩⑨ |⑧-⑨⑩|
7
①①口④ |①-②-|
⑧③⑤⑦ |③-④⑤|
③⑧⑩② |⑥-⑦-|
⑥⑥口⑨ |⑧-⑨⑩|
8
①①⑤④ |①-②-|
⑧③口⑦ |③-④⑤|
③⑧口② |⑥-⑦-|
⑥⑥⑩⑨ |⑧-⑨⑩|
9
①⑤⑧④ |①②③④|
口口口口 |⑤⑥⑦⑧|
③口⑥②
⑦口口口

口口口⑯
⑪⑬口⑩
口⑨口⑭ |⑨⑩⑪⑫|
口⑮⑫口 |⑬⑭⑮⑯|
10
①①③口 |①--②|
⑥口②③ |--③-|
⑤②口口 |--④-|
④口口口 |⑤-⑥-|
11
③③口① |①--②|
口②①④ |--③-|
口口②⑤ |--④-|
口口口⑥ |⑤-⑥-|
12
口口①① |①--②|
④口⑥⑤ |--③-|
②③口口 |----|
④③②口 |④-⑤⑥|
13
⑧④③② |①-②③|
口①⑦口 |④-⑤-|
⑥口口口 |⑥--⑦|
口⑤⑤口 |--⑧-|
14
口③口① |①②-③|
③⑤口② |--④-|
口④⑥口 |--⑤-|
④口口⑦ |⑥-⑦-|
15
①口⑤③ |①②-③|
②口③口 |--④-|
⑥⑦口④ |--⑤-|
口口④口 |--⑥⑦|
16
口口口口 |①-②-|
②口口口
口口①口
②口口口

口口⑥③
口⑨⑦④ |--③④|
⑨口⑧⑤ |⑤-⑥⑦|
口口口口 |⑧-⑨-|
17
①⑥口口 |①②③④|
②口口⑤ |⑤-⑥-|
口③口口
口④口口

⑫口口口
口口⑨口
⑩口⑦口 |⑦-⑧-|
⑧口⑪口 |⑨⑩⑪⑫|
18
口③①① |①--②|
③②口⑥ |--③-|
口口②⑤ |--④-|
口口口④ |⑤-⑥-|
11
①口③③ |①--②|
④①②口 |--③-|
⑤②口口 |--④-|
⑥口口口 |⑤-⑥-|
12
①①口口 |①--②|
⑤⑥口④ |--③-|
口口③② |----|
口②③④ |④-⑤⑥|
13
②③④⑧ |①-②③|
口⑦①口 |④-⑤-|
口口口⑥ |⑥--⑦|
口⑤⑤口 |--⑧-|
14
①口③口 |①②-③|
②口⑤③ |--④-|
口⑥④口 |--⑤-|
⑦口口④ |⑥-⑦-|
15
③⑤口① |①②-③|
口③口② |--④-|
④口⑦⑥ |--⑤-|
口④口口 |--⑥⑦|
16
口口口口 |①-②-|
口口口②
口①口口
口口口②

③⑥口口
④⑦⑨口 |--③④|
⑤⑧口⑨ |⑤-⑥⑦|
口口口口 |⑧-⑨-|
17
⑤口⑥① |①②③④|
口口口② |⑤-⑥-|
口口③口
口口④口

口口口口
口⑨⑨口
口⑦口口 |⑦-⑧-|
口⑩⑩⑧ |⑨-⑩-|
26
口口口口 |①---|
口口口口 |----|
①口口①
口口口口

②口口口
┃口口口
┃口口口 |②---|
∧口口口 |----|
27
口①②③ |①---|
口┃┃┃ |②---|
口┃┃┃ |③---|
口∧∧∧

④④④④
口⑤⑥口
口④④口
口口口口 |④-⑤⑥|
28
∨口口口 |①---|
②口口① |----|
口口口┃ |②---|
口口口∧ |----|
29
口口①< |①---|
①口口口
口口口口
口口口口

口∨②口
口②口口 |②---|
口口口口
口口口口

口口口口
口③∨口
口口③口 |③---|
口口口口

口口口口
口口口④
口口④口
口④<口 |④---|
30
②口①口 |①-②-|
④<③口 |③-④-|
④<口口
口①口口

口口口口
⑤口口口
⑤口口口 |----|
口口⑦⑥ |⑤-⑥⑦|
31
口①口② |①-②-|
口③>④ |③-④-|
口口>④
口口口口

口口口口
口口口⑤
口口口⑤ |----|
⑥⑦口口 |⑤-⑥⑦|
32
口⑤①⑤ |①-②-|
口②口口 |③④-⑤|
③④口口
口口口口

口口⑧口
口口⑨⑧
口口口⑨ |-⑥⑦-|
口口⑦⑥ |⑧-⑨-|
33
⑤⑤口口 |①-②-|
②口口口 |③④-⑤|
口④③口
①口口口

口口口⑥
口⑧⑧⑥
⑦口口口 |--⑥-|
⑦口口口 |⑦-⑧-|
34
口口口口 |①---|
口口口口
口口∨∨
口口①①

口②③口
②口┃口 |②---|
口口∧口 |③---|
口口②②

口口④口
口口口口
④口口口
口④口口 |④---|
35
①口口① |①---|
口口口∧
口口口口
口口口口

口口口②
②口口口 |②---|
口口②<
口口口口

口③口口
口∧口口
口口③口 |③---|
③口口口

⑤④∨口
口⑥④口
④口口口
口口口口 |④-⑤⑥|
36
口口口口 |①---|
①口①口 |②---|
┃口口口
∧②口口

口口口口
口口口口
口口口口 |③---|
>━③口

口口口口
口④口口
口口口口
口口④口 |④---|
37
口口①口 |①---|
口口∧口
口口口口
口口口口

口②②口
口口口口 |②---|
口>②口
口口口口

口口>③
口③口口
口口③口
口口口口 |③---|

口口口④
④口口V
口④口④
口口口口 |④---|
38
①⑥口口 |①②③④|
⑩⑤②⑦ |⑤-⑥⑦|
③⑧口① |⑧⑨⑩-|
⑤⑩④⑨

口口⑬口
口口⑫口
口口⑪口
口口口口 |⑪⑫⑬-|
39
⑨④⑩口 |①②③④|
⑧③口⑩ |⑤-⑥⑦|
②⑦口⑤ |⑧⑨⑩-|
①⑥⑤口

口口口口
口口口口
⑪口⑫口
⑬口⑭口 |⑪⑫⑬⑭|
40
⑥①⑦② |①②③④|
⑩⑤口口 |⑤-⑥⑦|
⑧③⑨④ |⑧⑨⑩-|
⑩⑤口口

口⑪口口
口口⑫口
口⑬口口
口口⑭口 |⑪⑫⑬⑭|
41
⑧⑩⑨⑤ |①②③④|
⑩④口③ |⑤-⑥⑦|
⑥口⑦⑤ |⑧⑨⑩-|
口②口①

口口口口
口口口口
口口口口
⑭⑬⑫⑪ |⑪⑫⑬⑭|
42
口口⑧⑦ |①②③④|
口③②① |⑤⑥⑦⑧|
⑥⑤④口
口口口口

口⑬口口
⑨口口⑫
口⑯⑮口 |⑨⑩⑪⑫|
口⑪⑭⑩ |⑬⑭⑮⑯|
43
⑤口③口 |①②-③|
⑥④①口 |④---⑤⑥⑦⑧|
⑦口口②
⑧口口口

口⑮口⑪
口口⑭⑨
口⑬⑩口 |⑨⑩-⑪|
口口⑫口 |⑫⑬⑭⑮|
44
口口①口 |①--②|
口②⑥口 |--③-|
②口⑤① |--④-|
口③④③ |⑤-⑥-|
45
口口①口 |①--②|
②口口口 |--③-|
口②口①
③口③口

口④口口
口⑤口口
口⑥口口 |--④-|
口口口口 |⑤-⑥-|
46
①口①口 |①--②|
③口③口 |--③-|
②口②口
口③口口

口口口④
口口口口
⑤⑥口④ |----|
口口口口 |④-⑤⑥|
47
口⑦⑦口 |①-②③|
②③④⑥ |④-⑤-|
⑧⑧①口 |⑥--⑦|
口⑤⑥口 |--⑧-|
48
①口⑦③ |①②-③|
②⑥④⑥ |--④-|
口⑤③⑤ |--⑤-|
口口⑥④ |⑥-⑦-|
49
口③口口 |①②-③|
口口④口 |--④-|
①口③口
②④口口

⑤口⑤口
口口口口
口口⑦⑥ |--⑤-|
口口口口 |--⑥⑦|
50
口口口口 |①-②-|
口口口②
口①口口
口口口②

③⑥口口
④⑦⑨口 |--③④|
⑤⑧口⑨ |⑤-⑥⑦|
口口口口 |⑧-⑨-|
51
③口⑪① |①②-③|
④⑩口② |④-⑤-|
口⑥⑨口 |⑥-⑦-|
⑤⑧⑦⑤ |⑧⑨⑩⑪|
52
口①口口 |①--②|
口⑥②口 |--③-|
①⑤口② |--④-|
③④③口 |⑤-⑥-|
45
口①口口 |①--②|
口口口② |--③-|
①口②口
口③口③

口口④口
口口⑤口
口口⑥口 |--④-|
口口口口 |⑤-⑥-|
46
口①口① |①--②|
口③口③ |--③-|
口②口②
口口③口

④口口口
口口口口
④口⑥⑤ |----|
口口口口 |④-⑤⑥|
47
口⑦⑦口 |①-②③|
⑥④③② |④-⑤-|
口①⑧⑧ |⑥--⑦|
口⑥⑤口 |--⑧-|
56
②③③① |①--②|
口①口口 |--③-|
口②口口
①③③②

口口口口
口口④口
口口口口 |--④-|
⑤口口⑥ |⑤-⑥-|
57
口④④口 |①②-③|
①口口① |--④-|
②③③②
口④④口

口口口⑤
口口⑤口
⑥⑦口口 |--⑤-|
口口口口 |--⑥⑦|
58
口口口口 |①-②-|
②口口口
口口①口
②口口口

口口⑥③
口⑨⑦④ |--③④|
⑨口⑧⑤ |⑤-⑥⑦|
口口口口 |⑧-⑨-|
59
①⑧口③ |①②-③|
②口⑥④ |④-⑤-|
口口⑩⑨ |⑥-⑦-|
⑦⑤⑤口 |⑧-⑨⑩|
60
①口②⑤ |①-②③|
①③口⑤ |④-⑤-|
④口口口
口口口口

口⑨口口
⑩口⑩口
口⑨口口 |⑥⑦⑧-|
⑥⑦⑧口 |⑨-⑩-|
61
②⑧⑦⑥ |①-②③|
口③口口 |④-⑤-|
⑤口④① |⑥⑦⑧-|
⑤口口①

口口口口
口口⑫口
口⑪口⑨
口口⑩口 |⑨⑩⑪⑫|
62
口口⑤⑤ |①-②③|
①①口② |④-⑤-|
口口③口
口④口口

口⑨口口
⑩⑪⑧口
口⑦⑫⑬ |⑥⑦⑧⑨|
口口⑥口 |⑩⑪⑫⑬|
63
⑤口③④ |①②③④|
口口口口 |⑤-⑥⑦|
⑤口口口
①②⑦⑥

口⑭⑭口
⑧⑨⑩⑪
口口⑬口 |⑧⑨⑩⑪|
口⑫口口 |⑫⑬⑭-|
64
口口口⑤ |①-②③|
口口口⑤ |④-⑤-|
①④口②
①口③口

⑥口⑧口
⑨⑦⑨口
口口口口 |⑥⑦⑧-|
⑩口⑩口 |⑨-⑩-|
65
口⑤⑤② |①-②③|
口口口③ |④-⑤-|
口①口④
口①⑨口

⑥口口口
⑦⑩⑨口
⑧口口口 |⑥⑦⑧-|
口⑩口口 |⑨-⑩-|
66
⑥⑩⑤① |①②③④|
⑦口口② |⑤-⑥⑦|
⑧⑤⑩③ |⑧⑨⑩-|
⑨口口④

口口口口
口口口⑪
口⑭口⑬
口⑫口口 |⑪⑫⑬⑭|
67
②口③① |①-②③|
口⑥①口 |④⑤⑥-|
④口⑤口
口口口⑥

口⑦口⑭
⑧口⑬口
口⑨口⑫ |⑦⑧⑨⑩|
⑩口⑪口 |⑪⑫⑬⑭|
68
①口②口 |①②③④|
⑤⑤口口 |⑤-⑥⑦|
③⑦④口
⑥口口口

口口⑫⑪
口口⑬⑩
口口⑭⑨ |⑧⑨⑩⑪|
口口⑮⑧ |⑫⑬⑭⑮|
69
④⑥口⑦ |①②③④|
口③口口 |⑤⑥⑦⑧|
②口口⑧
口①口⑤

口口口口
⑨口口⑩
口⑪⑬口 |⑨⑩⑪⑫|
⑫⑭⑬⑮ |⑬-⑭⑮|
70
①②③④ |①②③④⑤⑥|
⑤⑥⑦⑧ |⑦⑧⑨⑩⑪⑫|
⑨⑩⑪⑫
口口口口

⑰⑱⑲⑳
21222324
口口口口 |⑬⑭⑮⑯⑰⑱|
⑬⑭⑮⑯ |⑲⑳21222324|
71
口口口口 |①②③④⑤⑥|
口口口口
①②③④
⑤⑥口口

口口口∨
口口口┃ |⑦⑧----|
口口口┃ |----|
口口⑦⑧ |----|
72
口口口口 |----|
口口口口 |----|
口口口口 |----|
口口口口 |----|
73
口口口口 |----|
口口口口 |----|
口口口口 |----|
口口口口 |----|
74
口口口口 |----|
口口口口 |----|
口口口口 |----|
口口口口 |----|
75
口口口口 |----|
口口口口 |----|
口口口口 |----|
口口口口 |----|
76
口口口口 |①---|
口口口口 |----|
口口口口 |----|
口口口① |----|
最終更新:2019年11月22日 23:59