アットウィキロゴ
39
sasakure.UK&DECO*27

BASIC

Level: 3
BPM: 175
Notes: 116

1
口口口口 |----|
口口口口 |----|
口口口口 |----|
口口口口 |----|
2
口①口口 |①---|
口口口口 |----|
口口口口 |----|
口口口口

口口口口
口口口口
口口口口 |----|
口口口口 |----|
3
口口①口 |----|
口口口口 |①---|
口口口口 |----|
口口口口

口口口口
口口口口
口口口口 |----|
口口口口 |----|
4
口口口口 |①---|
口①口口 |----|
口口口口 |----|
口口口口

口口口口
口口口口
口口口口 |----|
口口口口 |----|
5
口口口口 |----|
口口①口 |①---|
口口口口 |----|
口口口口

口口口口
口口口口
口口口口 |----|
口口口口 |----|
6
口口口口 |①---|
口口口口 |----|
口①口口 |----|
口口口口 |----|
7
口口口口 |----|
口口口口 |----|
口口①口 |①---|
口口口口 |----|
8
口口口口 |----|
口口口口 |----|
口口口口 |①---|
口①口口 |----|
9
口口口口 |----|
口口口口 |----|
口口口口 |----|
口口口口 |----|
10
口口口口 |①---|
口口口口 |----|
口口口口 |----|
口口①口 |----|
11
口口口口 |----|
口口口口 |----|
口口口口
口口口口
12
口口口口 |①---|
口口口口 |----|
口①②口 |②---|
口口口口 |----|
13
口口口口 |①---|
口①②口 |----|
口口口口 |②---|
口口口口 |----|
14
口口口口 |①---|
①口口② |----|
口口口口 |②---|
口口口口 |----|
15
口口口口 |①---|
口口口口 |----|
①口口② |②---|
口口口口 |----|
16
口口口口 |①---|
口口口口 |----|
口①②口 |②---|
口口口口 |----|
17
口口口口 |①---|
口①②口 |----|
口口口口 |②---|
口口口口 |----|
18
口①①口 |①---|
口口口口 |----|
口口口口 |----|
口口口口
19
口口口口 |①---|
口①①口 |----|
口口口口 |----|
口口口口
20
口口口口 |①---|
口口口口 |----|
口①②口 |②---|
口口口口 |----|
21
口口口口 |①---|
口口口口 |----|
口口口口 |②---|
口①②口 |----|
22
口口口口 |①---|
口口口口 |----|
口口口口 |②---|
①口口② |----|
23
口口口口 |①---|
口口口口 |----|
①口口② |②---|
口口口口 |----|
24
口口口口 |①---|
口口口口 |----|
口①②口 |②---|
口口口口 |----|
25
口口口口 |①---|
口口口口 |----|
口口口口 |②---|
口①②口 |----|
26
口口口口 |①---|
口口口口 |----|
口①①口 |----|
口口口口 |----|
27
口口口口 |①---|
口①①口 |----|
口口口口 |----|
口口口口
28
口口口口 |----|
口口口口 |----|
口口口口 |----|
口口口口 |----|
29
口口①口 |①---|
口口口口 |----|
口口口口 |----|
口口口口 |----|
30
口口口口 |①---|
口口①口 |----|
口口口口 |----|
口口口口 |----|
31
口口口口 |①---|
口口口口 |----|
口口①口 |----|
口口口口 |----|
32
口口口口 |①---|
口口口口 |----|
口口口口 |----|
口口①口 |----|
33
口口口口 |①---|
口口口口 |----|
口口口口 |----|
口①口口 |----|
34
口口口口 |①---|
口口口口 |----|
口①口口 |----|
口口口口 |----|
35
口口口口 |①---|
①①①① |--②-|
②②②② |----|
口口口口 |----|
36
①②②① |①---|
口口口口 |--②-|
口口口口 |----|
口口口口 |----|
37
口口口口 |①---|
①②②① |--②-|
口口口口 |----|
口口口口 |----|
38
口口口口 |①---|
口口口口 |--②-|
①②②① |----|
口口口口 |----|
39
口口口口 |①---|
口口口口 |--②-|
口口口口 |----|
①②②① |----|
40
③口口口 |①---|
口口口口 |--②-|
①②②① |----|
口口口口 |--③-|
41
口①②③ |--①-|
④④④④ |--②-|
口口口口 |--③-|
口口口口 |--④-|
42
口口口口 |----|
口①口口 |----|
口口口口 |----|
口口口口 |--①-|
43
口口口口 |--①-|
口口①口 |--②-|
口②③口 |--③-|
口口口口 |----|
44
口②口口 |①---|
①①①① |----|
口口口口 |②---|
口口口口 |----|
45
口口口口 |①---|
口口①口 |----|
口②口口 |②---|
口口口口 |----|
46
口口口口 |①---|
口口口口 |----|
口口口口 |②---|
口②①口 |----|
47
口口口口 |①---|
口②口口 |----|
口口①口 |②---|
口口口口 |----|
48
口②①口 |①---|
口口口口 |----|
口口口口 |②---|
口口口口 |----|
49
①口口① |①---|
②口口② |②---|
③口口③ |③---|
④口口④ |④---|
50
口口口口 |----|
口口口口 |----|
口口口口 |----|
口口口口 |----|
51
口口①口 |----|
口口口口 |----|
口口口口 |①---|
口口口口 |----|
52
口口口口 |----|
口口口口 |----|
口口口口
口口口口
53
口口口口 |①---|
口①口口 |----|
口口口口 |----|
口口口口 |----|
54
口口口口 |----|
口口①口 |----|
口口口口 |①---|
口口口口 |----|
55
口口口口 |----|
口口口口 |----|
口口口口 |----|
口口口口 |----|
56
口口口口 |①---|
口口口口 |----|
口①口口 |----|
口口口口 |----|
57
口口口口 |----|
口口口口 |----|
口口①口 |①---|
口口口口 |----|
58
口口口口 |----|
口口口口 |----|
口口口口
口口口口
59
口口口口 |①---|
口口口口 |----|
口口口口 |----|
口①口口 |----|
60
口口口口 |----|
口口口口 |----|
口口口口 |①---|
口口①口 |----|
61
口口口口 |----|
口口口口 |----|
口口口口 |----|
口口口口 |----|
62
口口口口 |①---|
口口口口 |----|
口①①口 |----|
口口口口

口口口口
口口口口
口口口口 |----|
口口口口 |----|
63
口口口口 |----|
口口口口 |----|
口口口口 |----|
口口口口

口口口口
口口口口
口口口口 |----|
口口口口 |----|
64
口口口口 |----|
口口口口 |----|
口口口口 |----|
口口口口

口口口口
口口口口
口口口口 |----|
口口口口 |----|
65
口口口口 |----|
口口口口 |----|
口口口口 |----|
口口口口

口口口口
口口口口
口口口口 |----|
口口口口 |----|
66
口口口口 |----|
口口口口 |----|
口口口口 |----|
口口口口

口口口口
口口口口
口口口口 |----|
口口口口 |----|

accuracy: 99.5%
最終更新:2023年10月11日 02:11