アットウィキロゴ
39
sasakure.UK&DECO*27

ADVANCED

Level: 6
BPM: 175
Notes: 339

1
口口口口 |----|
口口口口 |----|
口口口口 |----|
口口口口 |----|
2
口①②口 |①---|
口口口口 |--②-|
口口口口 |----|
口口口口

口口口口
口③④口
口口口口 |③---|
口口口口 |--④-|
3
口口口口 |----|
口口口口 |①---|
口①②口 |--②-|
口口口口

口口口口
口口口③
口口口④ |--③-|
口口口口 |--④-|
4
口①②口 |①---|
口口口口 |--②-|
口口口口 |----|
口口口口

口口口口
口③④口
口口口口 |③---|
口口口口 |--④-|
5
口口口口 |----|
口口口口 |①---|
口①②口 |--②-|
口口口口

口口口口
③口口口
④口口口 |--③-|
口口口口 |--④-|
6
口口口口 |①-②-|
⑤①②⑥ |③-④-|
口③④口 |----|
口口口口 |⑤-⑥-|
7
口口口口 |①-②-|
口③④口 |----|
①⑤⑥② |③-④-|
口口口口 |⑤-⑥-|
8
①②③口 |--①-|
口④⑤口 |②-③-|
口⑥⑦口 |④-⑤-|
口口口口 |⑥-⑦-|
9
口口口口 |----|
①口口② |①-②-|
③口口④ |③-④-|
口口口口 |----|
10
⑤⑥⑦口 |①-②-|
口①②口 |③-④-|
口③④口 |--⑤-|
口口口口 |⑥-⑦-|
11
口口口① |①-②-|
口②②口 |----|
口口口口
口口口口
12
口口④口 |----|
口口口口 |--①-|
口口口口 |②-③-|
口①②③ |--④-|
13
口口口② |--①-|
口③④口 |--②-|
口口①口 |--③-|
口口口口 |④---|
14
口④口口 |----|
口口口口 |--①-|
口口口口 |②-③-|
③②①口 |--④-|
15
②口口② |--①-|
③口口③ |--②-|
口①口口 |--③-|
口口口口 |----|
16
口口④口 |----|
口口口口 |--①-|
口口口口 |②-③-|
口①②③ |--④-|
17
口口口② |--①-|
口③④口 |--②-|
口口①口 |--③-|
口口口口 |④---|
18
口①②口 |①---|
口口口口 |--②-|
口②①口 |----|
口口口口
19
①口口② |①---|
口口口口 |--②-|
②口口① |--③-|
口③③口
20
口口口口 |----|
口①口③ |--①-|
口口②口 |②-③-|
口口④口 |--④-|
21
口口口口 |--①-|
口口①口 |--②-|
口③④口 |--③-|
口②口口 |④---|
22
口口口口 |----|
③口①口 |--①-|
口②口口 |②-③-|
口④口口 |--④-|
23
口口口口 |--①-|
③①口③ |--②-|
②口口② |--③-|
口口口口 |----|
24
口口口口 |----|
口①口③ |--①-|
口口②口 |②-③-|
口口④口 |--④-|
25
口口口口 |--①-|
口口①口 |--②-|
口③④口 |--③-|
口②口口 |④---|
26
④口口④ |①---|
①口口① |----|
口口口口 |②-③-|
口②③口 |--④-|
27
口口口口 |--①-|
口口口口 |②-③-|
口①②口 |④-⑤-|
⑤③④口
28
口口口口 |①---|
口口口口 |----|
口口口口 |②---|
口②口① |----|
29
口口口口 |①---|
口②口口 |----|
口口①口 |②---|
口口口口 |----|
30
口②①口 |①---|
口口口口 |----|
口口口口 |②---|
口口口口 |----|
31
口口口口 |①---|
口口①口 |----|
口②口口 |②---|
口口③口 |--③-|
32
③②口③ |①---|
口口口口 |②-③-|
口口口口
口①口口

口口口口
口口口口
④口口④ |--④-|
口⑤口口 |--⑤-|
33
口⑤⑤口 |①-②-|
口口口口 |③-④-|
口④④口 |--⑤-|
②口①③ |----|
34
②口口口 |①---|
①①①① |----|
口口口口 |----|
口口口口 |--②-|
35
口③③口 |①-②-|
⑤①口口 |--③-|
口口②口 |--④-|
口④④口 |--⑤-|
36
口④口④ |①-②-|
口口②⑥ |③-④-|
口①口③ |--⑤-|
口⑤口⑤ |--⑥-|
37
④口④口 |①-②-|
⑥②口口 |③-④-|
③口①口 |--⑤-|
⑤口⑤口 |--⑥-|
38
口④口④ |①-②-|
口口②口 |③-④-|
口①口③
口口口口

口口口口
口口口口
口⑥口口 |--⑤-|
口⑤口⑤ |--⑥-|
39
④④④④ |①-②-|
口①②口 |③-④-|
口口③口 |--⑤-|
⑦⑤⑥口 |⑥-⑦-|
40
口④④口 |①-②-|
口口⑥口 |③-④-|
②⑥口③ |--⑤-|
口⑤⑤① |--⑥-|
41
④④④④ |--①-|
③①口② |--②-|
②口①③ |--③-|
口口口口 |--④-|
42
口口口口 |----|
④①②④ |①---|
口③口口 |②---|
口口口口 |③-④-|
43
⑤口口口 |--①-|
⑤口口口 |②-③-|
⑤④④口 |--④-|
口①②③ |⑤---|
44
口口①① |①---|
口②①① |--②-|
口口口①
口口口口

口口口口
口口④口
口③口口 |③---|
口口口口 |--④-|
45
口口口口 |①---|
口口④② |--②-|
口口①③ |③---|
口口口口 |--④-|
46
口口口口 |①---|
④②口口 |--②-|
口③①口 |③---|
口口口口 |--④-|
47
④口③口 |①---|
口②口口 |②---|
①口②口 |③---|
口③口④ |④---|
48
口口口① |①---|
口②④① |--②-|
①③口口 |③---|
①口口口 |--④-|
49
口③②口 |①---|
④口口④ |②---|
④口①④ |③---|
口②③口 |④---|
50
口口口口 |①-②-|
⑤①②⑥ |③-④-|
口③④口 |----|
口口口口 |⑤-⑥-|
51
口口口口 |①-②-|
口③④口 |----|
①⑤⑥② |③-④-|
口口口口 |⑤-⑥-|
52
①②③口 |--①-|
口口口口 |②-③-|
口口口口
口口口口
53
口口口口 |①-②-|
⑤①②⑥ |③-④-|
口③④口 |----|
口口口口 |⑤-⑥-|
54
口口口口 |①-②-|
口③④口 |----|
①⑤⑥② |③-④-|
口口口口 |⑤-⑥-|
55
口口口口 |----|
①口口② |①-②-|
③口口④ |③-④-|
口口口口 |----|
56
①②④③ |①-②-|
⑤⑥口口 |③-④-|
口口口口 |----|
口口口口 |⑤-⑥-|
57
口口口口 |①-②-|
口口②① |----|
③④⑥⑤ |③-④-|
口口口口 |⑤-⑥-|
58
①口③口 |--①-|
口②口口 |②-③-|
口口口口
口口口口
59
口口口口 |①-②-|
口口口口 |③-④-|
①②④③ |----|
⑤⑥口口 |⑤-⑥-|
60
口口口口 |①-②-|
口口口口 |----|
③④⑥⑤ |③-④-|
口口②① |⑤-⑥-|
61
口口口口 |----|
①②④③ |①-②-|
口口口口 |③-④-|
口口口口 |----|
62
①口②① |①---|
口口口口 |--②-|
口口口口 |----|
口口口口

口口口口
口③④口
口口口口 |③---|
口口口口 |--④-|
63
口口口口 |----|
口口口口 |①---|
口①②口 |--②-|
口口口口

口口口口
口口口③
口口口④ |--③-|
口口口口 |--④-|
64
口①②口 |①---|
口口口口 |--②-|
口口口口 |----|
口口口口

口口口口
口③④口
口口口口 |③---|
口口口口 |--④-|
65
口口口口 |----|
口口口口 |①---|
口①②口 |--②-|
口口口口

口口口口
口口口口
口口口口 |----|
口③口口 |③---|
66
口口口口 |--①-|
口口口口 |----|
口口口口 |----|
口口①口

口口口口
口口口口
口口口口 |----|
口口口口 |----|

accuracy: 99.5%
最終更新:2023年10月11日 02:07