アットウィキロゴ
39
sasakure.UK&DECO*27

EXTREME

Level: 8
BPM: 175
Notes: 439

1
口口口口 |----|
口口口口 |----|
口口口口 |----|
口口口口 |----|
2
①口口口 |①---|
口口口口 |--②-|
口口口口 |----|
②口口口

口③口口
口口口口
口口口口 |③---|
口④口口 |--④-|
3
口口①口 |----|
口口口口 |①---|
口口口口 |--②-|
口口②口

口口口口
口口口④
口口③口 |--③-|
口口口口 |--④-|
4
口口口① |①---|
口口口口 |--②-|
口口口口 |----|
口口口②

口口③口
口口口口
口口口口 |③---|
口口④口 |--④-|
5
口①口口 |----|
口口口口 |①---|
口口口口 |--②-|
口②口口

口口口口
④口口口
口③口口 |--③-|
口口口口 |--④-|
6
①口①③ |①-②-|
口⑤口口 |③-④-|
口口②④ |----|
口⑥口口 |⑤-⑥-|
7
口口③⑤ |①-②-|
①口口口 |----|
口口④⑥ |③-④-|
②口口口 |⑤-⑥-|
8
口口④口 |--①-|
口③⑥⑦ |②-③-|
口②⑤口 |④-⑤-|
口①口口 |⑥-⑦-|
9
口②口口 |--①-|
⑤④口口 |②-③-|
⑥③口① |④-⑤-|
口口口口 |--⑥-|
10
口⑦①口 |①-②-|
⑥口③④ |③-④-|
口⑤②⑤ |--⑤-|
口口口口 |⑥-⑦-|
11
①口口口 |①-②-|
口②②口 |----|
口口口口
口口口口
12
⑥口口② |①---|
④⑤口口 |②-③-|
口③口① |④-⑤-|
口口口口 |--⑥-|
13
口口口口 |--①-|
②口口② |--②-|
口口口口 |--③-|
①③④口 |④---|
14
②口口⑥ |①---|
口口⑤④ |②-③-|
①口③口 |④-⑤-|
口口口口 |--⑥-|
15
口口口口 |--①-|
②口口② |--②-|
口口口① |--③-|
③口口③ |----|
16
⑥口⑥② |①---|
口口口口 |②-③-|
口③⑤① |④-⑤-|
口口④口 |--⑥-|
17
口③④口 |--①-|
②①②口 |--②-|
口口口口 |--③-|
口口口口 |④---|
18
①口口口 |①---|
口①口口 |--②-|
②口①② |----|
口口口①
19
口③③① |①---|
口口①口 |--②-|
③①口③ |--③-|
①②②口
20
⑤口口口 |----|
口口口① |①-②-|
口②④口 |③-④-|
口口③口 |--⑤-|
21
口口口口 |--①-|
口口②② |--②-|
①口口口 |--③-|
口③④口 |④---|
22
②口口⑥ |①---|
口口口口 |②-③-|
①⑤③口 |④-⑤-|
口④口口 |--⑥-|
23
口口口口 |--①-|
②②口口 |--②-|
口口口① |--③-|
口③③口 |----|
24
⑥口⑥② |①---|
口口口口 |②-③-|
口③⑤① |④-⑤-|
口口④口 |--⑥-|
25
口口口口 |--①-|
①口①口 |--②-|
口③④口 |--③-|
口②口口 |④---|
26
口①①④ |①---|
口①①口 |②---|
口⑤口③ |③-④-|
口口②口 |--⑤-|
27
①口口口 |--①-|
口②⑤口 |②-③-|
口口口④ |④-⑤-|
口口③口
28
口口口① |①---|
②口口口 |----|
口口口口 |②---|
口口口口 |----|
29
口①②口 |①---|
口口口口 |----|
口①口口 |②---|
口口②口 |----|
30
口口口① |①---|
口口口② |----|
口口口① |②---|
口口口口 |----|
31
口③①口 |①---|
④②⑤⑤ |--②-|
口口①口 |③---|
口③口口 |④-⑤-|
32
④③口口 |①---|
口口口⑤ |②-③-|
③④口② |--④-|
口口①① |--⑤-|
33
口口④⑤ |①-②-|
②③①口 |③-④-|
口口⑤④ |--⑤-|
口口口口 |----|
34
口口口口 |①---|
⑥⑦⑦口 |②-③-|
④口口⑤ |④-⑤-|
①②③① |⑥-⑦-|
35
③②①③ |①-②-|
口口口口 |--③-|
口①②⑤ |--④-|
④口⑤④ |--⑤-|
36
④②口④ |①-②-|
②③口口 |③-④-|
⑥口①口 |--⑤-|
⑤⑥口⑤ |--⑥-|
37
④口②④ |①-②-|
口口③② |③-④-|
⑥①口口 |--⑤-|
⑤⑥口⑤ |--⑥-|
38
④①②④ |①-②-|
①口口② |③-④-|
口口口③
口口③口

口口口口
⑥口口口
口口口口 |--⑤-|
⑤⑥口⑤ |--⑥-|
39
④口⑦④ |①-②-|
口①②③ |③-④-|
⑥①②口 |--⑤-|
⑤口③口 |⑥-⑦-|
40
口口口③ |①-②-|
口口①② |③-④-|
口口口口
口④④口

口口口口
口⑥⑥口
⑥口口⑥ |--⑤-|
⑤口口⑤ |--⑥-|
41
②①①② |--①-|
②④④② |--②-|
④①①④ |--③-|
④③③④ |--④-|
42
②④③① |----|
口⑥⑥⑤ |①-②-|
口⑥⑥口 |③-④-|
口口口口 |⑤-⑥-|
43
口口口口 |--①-|
⑤口口口 |②-③-|
⑤口口① |--④-|
⑤④③② |⑤---|
44
口①①① |①---|
口①①① |②-③-|
口①①①
口口②③

⑥⑥口口
⑤口口口
口口口口 |④---|
口④口口 |⑤-⑥-|
45
口口③③ |①---|
⑥⑥口② |②-③-|
⑤①④口 |④---|
口口口口 |⑤-⑥-|
46
口口口口 |①---|
口⑥③③ |②-③-|
⑤口⑥② |④---|
口①④口 |⑤-⑥-|
47
②③①③ |①---|
口口口口 |②---|
口①口② |③---|
口④口④ |④---|
48
口口⑤④ |①---|
②口①① |②-③-|
①①口③ |④---|
⑥⑥口口 |⑤-⑥-|
49
①①④④ |①---|
②②④④ |②---|
③②②④ |③---|
口口②③ |④---|
50
①口口⑥ |①-②-|
④③口口 |③-④-|
⑤②⑦口 |--⑤-|
口口口口 |⑥-⑦-|
51
④口口口 |①-②-|
⑦⑥①② |--③-|
口⑤口③ |④-⑤-|
口口口口 |⑥-⑦-|
52
口口口口 |--①-|
口口口① |②-③-|
口口②口
口③口口
53
口①⑥口 |①-②-|
④③口口 |③-④-|
⑤②⑦口 |--⑤-|
口口口口 |⑥-⑦-|
54
口④口口 |①-②-|
⑦⑥①② |--③-|
口⑤口③ |④-⑤-|
口口口口 |⑥-⑦-|
55
口口③口 |--①-|
口口④⑤ |②-③-|
①口②⑥ |④-⑤-|
口口口口 |--⑥-|
56
口④口口 |①-②-|
③口⑥口 |③-④-|
②⑤口⑦ |--⑤-|
口①口口 |⑥-⑦-|
57
口⑦②口 |①-②-|
⑥④口① |--③-|
⑤口③口 |④-⑤-|
口口口口 |⑥-⑦-|
58
口口口口 |--①-|
口③口口 |②-③-|
口①②口
口口口口
59
口口④③ |①-②-|
⑦⑥①② |③-④-|
口口⑤口 |--⑤-|
口口口口 |⑥-⑦-|
60
①②⑦⑥ |①-②-|
口口④⑤ |--③-|
口③口口 |④-⑤-|
口口口口 |⑥-⑦-|
61
④⑤口口 |--①-|
③②口口 |②-③-|
口⑥①口 |④-⑤-|
口口口口 |--⑥-|
62
口口①口 |①---|
口②口口 |--②-|
口口口口 |----|
口口口口

口口口口
口口口④
口口③口 |③---|
口口口口 |--④-|
63
①口口口 |----|
口口口口 |①---|
口口口口 |--②-|
②口口口

口口口口
口口口④
口口③口 |--③-|
口口口口 |--④-|
64
口口口① |①---|
口口口口 |--②-|
口口口口 |----|
口口口②

口口③口
口口口口
口口口口 |③---|
口口④口 |--④-|
65
口①口口 |----|
口口口口 |①---|
口口口口 |--②-|
口②口口

③口口口
口口口口
口口口口 |----|
口口口口 |③---|
66
口口口口 |--①-|
口口口口 |----|
口口口口 |----|
①口口口

口口口口
口口口口
口口口口 |----|
口口口口 |----|

accuracy: 99.5%
最終更新:2023年10月11日 02:08