アットウィキロゴ
雨上がりの空に
猫大樹

ADVANCED

Level: 9.7
BPM: 160
Notes(hold): 729(26)

1
口口口口 |----|
口口口口 |----|
口口口口 |----|
口口口口 |----|
2
口口口② |①-②-|
⑥①口口 |--③-|
口口⑤口 |--④-|
④口口③ |⑤-⑥-|
3
②口口口 |①-②-|
口口①⑥ |--③-|
口⑤口口 |--④-|
③口口④ |⑤-⑥-|
4
⑤①③⑦ |①-②-|
口口口口 |③-④-|
口口口口 |⑤-⑥-|
⑥②④⑧ |⑦-⑧-|
5
口口③口 |①-②-|
②③①④ |--③-|
②①⑤④ |--④-|
口⑤口口 |--⑤-|
6
②口口口 |①-②-|
口口①⑥ |--③-|
口⑤口口 |--④-|
③口口④ |⑤-⑥-|
7
口口口② |①-②-|
⑥①口口 |--③-|
口口⑤口 |--④-|
④口口③ |⑤-⑥-|
8
⑦③①⑤ |①-②-|
口口口口 |③-④-|
口口口口 |⑤-⑥-|
⑧④②⑥ |⑦-⑧-|
9
口③口口 |①-②-|
④①③② |--③-|
④⑤①② |--④-|
口口⑤口 |--⑤-|
10
口③②① |①②③-|
口⑤口④ |④-⑤-|
口口口口 |⑥⑦-⑧|
口口口口 |⑨---|

口口口⑨
口口⑨口
口口⑦⑥
⑧口口口
11
①①④口 |①-②③|
⑤⑥口④ |-④-⑤|
③③口口 |-⑥-⑦|
⑤⑥②② |⑧-⑨-|

⑨⑨口口
口口口口
口口⑧⑦
口口口口
12
⑫口⑤① |①②③④|
⑪⑥②口 |-⑤⑥⑦|
⑦③⑩口 |-⑧-⑨|
④⑧⑨⑧ |⑩⑪⑫-|
13
口③②① |①②③④|
口⑥⑤④ |⑤⑥⑦⑧|
口⑫⑪⑩ |⑨⑩⑪⑫|
口⑨⑧⑦ |⑬⑭⑮⑯|

口⑮⑭⑬
口口口⑯
口口口口
口口口口
14
②口口口 |①-②③|
③口①口 |-④⑤⑥|
口口口口 |⑦--⑧|
⑦⑥⑤④ |--⑨-|

口口口⑨
口口⑨口
口口⑧⑧
口口口口
15
①①④口 |①-②③|
⑤⑥口④ |-④-⑤|
③③口口 |-⑥-⑦|
⑤⑥②② |⑧-⑨-|

⑨⑨口口
口口口口
口口⑧⑦
口口口口
16
⑫口⑤① |①②③④|
⑪⑥②口 |-⑤⑥⑦|
⑦③⑩口 |-⑧-⑨|
④⑧⑨⑧ |⑩⑪⑫-|
17
口③②① |①②③④|
口⑥⑤④ |⑤⑥⑦⑧|
口⑫⑪⑩ |⑨⑩⑪⑫|
口⑨⑧⑦ |⑬⑭⑮⑯|

口⑮⑭⑬
口口口⑯
口口口口
口口口口
18
⑨口口口 |①②③④|
∧②①口 |⑤⑥⑦⑧|
⑨⑧⑦⑥ |⑨---|
∧⑤④③ |⑩-⑪-|

⑩⑩口口
口⑪口口
⑩口口口
口口口口
19
口口②② |①-②-|
口口①① |--③-|
口④⑤口 |----|
口口③③ |④-⑤-|
20
②②口口 |①-②-|
①①口口 |--③-|
口⑤④口 |----|
③③口口 |④-⑤-|
21
④②①③ |①-②-|
②⑤口① |--③-|
口口⑥③ |--④-|
口口口口 |⑤-⑥-|
22
口口口② |①---|
口口口口 |②---|
口口口口 |----|
口①━< |③---|

③口口口
口口口口
口口口口
口③口口
23
口口②② |①-②-|
口口①① |--③-|
口④⑤口 |----|
口口③③ |④-⑤-|
24
②②口口 |①-②-|
①①口口 |--③-|
口⑤④口 |----|
③③口口 |④-⑤-|
25
口②①③ |①-②-|
②口⑥① |--③-|
口⑤口③ |--④-|
④口口口 |⑤-⑥-|
26
口①━< |①---|
口口口口 |②---|
口口口口 |----|
口口口② |③---|

口③口口
口口口口
口口口口
③口口口
27
口口②⑤ |①-②-|
口口①④ |--③-|
口口口口 |④-⑤-|
口口③⑥ |--⑥-|
28
⑤②口口 |①-②-|
④①口口 |--③-|
口口口口 |④-⑤-|
⑥③口口 |--⑥-|
29
口②①③ |①-②-|
口口口口 |--③-|
口②①③ |--④-|
口口口口 |⑤-⑥-|

④口口口
口⑤口口
口口⑥口
口口口口
30
口口口② |①---|
口口口口 |②---|
口口口口 |----|
口①━< |③---|

③口口口
口口口口
口口口口
口③口口
31
口口②⑤ |①-②-|
口口①④ |--③-|
口口口口 |④-⑤-|
口口③⑥ |--⑥-|
32
⑤②口口 |①-②-|
④①口口 |--③-|
口口口口 |④-⑤-|
⑥③口口 |--⑥-|
33
口②①③ |①-②-|
口①②口 |--③-|
口口口③ |--④-|
口口口口 |⑤-⑥-|

口口口口
口口⑥口
口⑤口口
④口口口
34
∨①口口 |①---|
①∧口口 |②---|
口口口口 |----|
口口口② |③---|

口③口口
③口口口
口口口口
③口口口
35
⑤口⑥⑥ |①-②-|
口口③① |③-④-|
口口④② |⑤---|
口口⑤⑥ |⑥---|
36
⑥⑥口⑤ |①-②-|
①③口口 |③-④-|
②④口口 |⑤---|
⑥⑤口口 |⑥---|
37
⑤口⑥⑥ |①-②-|
口口③① |③-④-|
口口④② |⑤---|
口口⑤⑥ |⑥---|
38
口⑤⑤口 |①-②-|
①③口口 |③-④-|
②④口口 |⑤---|
口⑤⑤口 |----|
39
口③④口 |①-②-|
②口口① |③-④-|
①口口② |⑤--⑥|
口④③口 |--⑦-|

口口口⑥
⑦⑤口口
口口⑤⑦
⑥口口口
40
④③②⑤ |①-②-|
口⑤口① |③-④-|
①口⑤口 |⑤---|
⑤②③④ |----|
41
口⑪⑦口 |①②③④|
④⑫⑧① |⑤⑥⑦⑧|
⑤⑬⑨② |⑨⑩⑪⑫|
⑥口⑩③ |⑬---|
42
②口口① |①---|
④③④③ |②---|
③④③④ |③---|
②口口① |④---|
43
口③②① |①②③-|
口⑤口④ |④-⑤-|
口口口口 |⑥⑦-⑧|
口口口口 |⑨---|

口口口⑨
口口⑨口
口口⑦⑥
⑧口口口
44
①①①⑦ |①-②-|
②③⑧③ |③-④⑤|
⑥口⑤⑦ |--⑥-|
⑥④⑤④ |⑦-⑧-|
45
⑤①⑤口 |①-②-|
②⑤口③ |③-④⑤|
④①③⑥ |--⑥-|
口⑧⑦③ |⑦-⑧-|
46
∨①<口 |①---|
①口①口 |----|
>①∧口 |----|
口口口口 |----|
47
口①口③ |①---|
①①①口 |----|
口①口口 |②---|
口口口② |③---|
48
①②⑥⑥ |①-②-|
口③口④ |③-④⑤|
①⑧⑤⑤ |--⑥-|
⑦③⑦④ |⑦-⑧-|
49
⑤②④口 |①-②-|
①⑤①⑧ |③-④⑤|
⑤口③⑦ |--⑥-|
口③⑥③ |⑦-⑧-|
50
口∨∨① |①---|
①┃①┃ |----|
┃①口┃ |----|
∧口口∧ |----|
51
口①口① |①---|
①口①口 |----|
口①口口 |②③④⑤|
口口口口 |⑥⑦⑧⑨|

口口②⑥
⑦③口口
口口④⑧
⑨⑤口口
52
③③口口 |①-②-|
④⑥①② |--③-|
口③口口 |--④-|
⑤口②① |⑤-⑥-|
53
口口②① |①-②-|
④⑥③③ |--③-|
口口①② |--④-|
⑤口③口 |⑤-⑥-|
54
>━━① |①-②-|
>━━③ |③-④-|
>━━⑤ |⑤-⑥-|
>━━⑦ |⑦-⑧-|

口⑧口②
口⑥口④
口④口⑥
口②口⑧
55
⑤口⑥① |①②③-|
口口②④ |④--⑤|
⑦③口口 |-⑥-⑦|
⑧口口⑨ |⑧-⑨-|
56
③①③① |①---|
①②②③ |②---|
口③①② |③---|
口②口口 |④-⑤-|

口口口口
口口口口
⑤口④口
④口⑤口
57
口②口口 |--①-|
②口②口 |--②-|
口②口① |--③-|
口①口① |④-⑤-|

⑤口口④
口③口口
口口③口
④口口⑤
58
口口①口 |①---|
口口∧① |②---|
①∨口口 |③---|
口①口口 |④---|

口口②口
③<口口
口口>③
口②口口

口口口口
④口口④
④口口④
口口口口
59
②口①③ |①---|
④①①⑤ |----|
⑥①①⑦ |②③④⑤|
⑧口口⑨ |⑥⑦⑧⑨|
60
口口口口 |①-②-|
口口②口 |--③-|
口①口口 |----|
口③口口 |----|
61
口口口口 |①-②-|
口口②口 |--③-|
口①口口 |----|
口③口口 |----|
62
口②口口 |①-②-|
口口①口 |--③-|
口口③口 |----|
口口口口 |----|
63
口口口口 |①-②-|
口口②口 |--③-|
口①口口 |----|
口③口口 |----|
64
③⑤口口 |①-②-|
⑤③口口 |③---|
口口④口 |--④-|
口口②① |⑤---|
65
③⑤口口 |①-②-|
⑤③口口 |③---|
口口④口 |--④-|
口口②① |⑤---|
66
⑤口口① |①-②-|
⑥口口② |③-④-|
⑦口口③ |⑤-⑥-|
⑧口口④ |⑦-⑧-|
67
口②①口 |①②③④|
口④③⑨ |⑤⑥⑦⑧|
口⑥⑤⑨ |⑨--⑩|
口⑧⑦口 |⑪---|

⑩━━<
口口口口
⑩口口口
口口口口

⑪口口口
口口口口
口口口口
⑪口口口
68
⑫口③口 |①②③④|
②⑥①口 |⑤-⑥-⑦⑧⑨-|
⑪④⑩⑦ |--⑩⑪|
⑬⑨⑧⑤ |⑫-⑬-|
69
⑫口③口 |①②③④|
②⑥①口 |⑤-⑥-⑦⑧⑨-|
⑪④⑩⑦ |--⑩⑪|
⑬⑨⑧⑤ |⑫-⑬-|
70
口③②① |①②③④|
口⑥⑤④ |⑤⑥⑦⑧|
口⑫⑪⑩ |⑨⑩⑪⑫|
口⑨⑧⑦ |⑬⑭⑮⑯|

口⑮⑭⑬
口口口⑯
口口口口
口口口口
71
⑨━━< |①②③④|
口②①口 |⑤⑥⑦⑧|
⑨⑧⑦⑥ |⑨---|
口⑤④③ |⑩-⑪-|

⑩口口⑩
口口口口
口口口口
口口口⑪
72
口③口⑫ |①②③④|
口①⑥② |⑤-⑥-⑦⑧⑨-|
⑦⑩④⑪ |--⑩⑪|
⑤⑧⑨⑬ |⑫-⑬-|
73
口③口⑫ |①②③④|
口①⑥② |⑤-⑥-⑦⑧⑨-|
⑦⑩④⑪ |--⑩⑪|
⑤⑧⑨⑬ |⑫-⑬-|
74
①②③口 |①②③④|
④⑤⑥口 |⑤⑥⑦⑧|
⑩⑪⑫口 |⑨⑩⑪⑫|
⑦⑧⑨口 |⑬⑭⑮⑯|

⑬⑭⑮口
⑯口口口
口口口口
口口口口
75
>━━⑨ |①②③④|
口①②口 |⑤⑥⑦⑧|
⑥⑦⑧⑨ |⑨---|
③④⑤口 |⑩---|

⑩⑩口⑩
⑩⑩口口
口口口口
口口口口
最終更新:2020年11月28日 17:06