アットウィキロゴ
雨上がりの空に
猫大樹

EXTREME

Level: 10.5
BPM: 160
Notes(hold): 836(41)

1
口口口口 |----|
口口口口 |----|
口口口口 |----|
口口口口 |----|
2
②口①② |①-②-|
③口口④ |--③-|
④口⑤口 |--④-|
⑥⑥口③ |⑤-⑥-|
3
②口①② |①-②-|
③口口④ |--③-|
④口⑤口 |--④-|
⑥⑥口③ |⑤-⑥-|
4
②口⑦① |①-②-|
④口③⑤ |③-④-|
⑥口⑧② |⑤-⑥-|
⑧口④⑥ |⑦-⑧-|
5
②口口口 |①-②-|
③口①口 |--③-|
④口口① |--④-|
⑤口口口 |--⑤-|
6
②口①② |①-②-|
③口口④ |--③-|
④口⑤口 |--④-|
⑥⑥口③ |⑤-⑥-|
7
②口①② |①-②-|
③口口④ |--③-|
④口⑤口 |--④-|
⑥⑥口③ |⑤-⑥-|
8
②口⑦① |①-②-|
④口③⑤ |③-④-|
⑥口⑧② |⑤-⑥-|
⑧口④⑥ |⑦-⑧-|
9
②口口口 |①-②-|
③口①口 |--③-|
④口口① |--④-|
⑤口口口 |--⑤-|
10
①⑨⑥④ |①②③-|
⑨②⑦口 |④-⑤-|
口⑤③口 |⑥⑦-⑧|
口口⑧口 |⑨---|
11
①⑨④⑥ |①-②③|
口①口④ |-④-⑤|
⑤③②口 |-⑥-⑦|
⑦⑤⑧① |⑧-⑨-|
12
口口⑫口 |①②③④|
③⑪②⑤ |-⑤⑥⑦|
⑩④⑥① |-⑧-⑨|
⑨⑦口⑧ |⑩⑪⑫-|
13
①⑤口⑫ |①②③④|
⑦⑪⑧④ |⑤⑥⑦⑧|
口③口② |⑨⑩⑪⑫|
口⑨⑥⑩ |⑬⑭⑮⑯|

⑮口⑯口
口口口口
口口⑭口
⑬口口口
14
⑩③口⑨ |①-②③|
口⑤⑩② |--④-⑤-⑥⑦|
①①口④ |⑧--⑨|
⑧⑦⑥⑨ |--⑩-|
15
口①④⑥ |①-②③|
①口口④ |-④-⑤|
⑤③②口 |-⑥-⑦|
⑦⑤⑧口 |⑧-⑨-|

口⑨口口
口口口口
口口口口
口口口口
16
口口⑫口 |①②③④|
③⑪②⑤ |-⑤⑥⑦|
⑩④⑥① |-⑧-⑨|
⑨⑦口⑧ |⑩⑪⑫-|
17
①⑤口⑫ |①②③④|
⑦⑪⑧④ |⑤⑥⑦⑧|
口③口② |⑨⑩⑪⑫|
口⑨⑥⑩ |⑬⑭⑮⑯|

⑮口⑯口
口口口口
口口⑭口
⑬口口口
18
口⑤口口 |①②③④|
③口④⑨ |⑤-⑥-⑦-⑧⑨|
①⑦口⑧ |⑩---|
口口②⑥ |⑪⑫⑬⑭|

>━━⑩
口口口口
口口口口
口口口口

⑬口⑭⑪
口口口口
⑪口⑫口
口口口口
19
口口口∨ |①-②-|
②∨②┃ |--③-|
口┃④③ |-④--|
①③口口 |⑤-⑥-|

口口⑥口
口口口口
口口口⑤
⑤⑤口口
20
∨口口口 |①-②-|
┃②∨② |--③-|
③④┃口 |-④--|
口口③① |⑤-⑥-|

口⑥口口
口口口口
⑤口口口
口口⑤⑤
21
④口⑥③ |①-②-|
口口口③ |--③-|
口口口① |--④-|
②⑤口口 |⑤-⑥-|
22
口口口④ |①---|
口②②口 |②--③|
③口口口 |-④--|
>━━① |⑤---|

口口口口
口口口口
口⑤⑤口
口口口⑤
23
口口口∨ |①-②-|
②∨②┃ |--③-|
口┃④③ |-④--|
①③口口 |⑤-⑥-|

口口⑥口
口口口口
口口口⑤
⑤⑤口口
24
∨口口口 |①-②-|
┃②∨② |--③-|
③④┃口 |-④--|
口口③① |⑤-⑥-|

口⑥口口
口口口口
⑤口口口
口口⑤⑤
25
④口口③ |①-②-|
口口口③ |--③-|
口口口① |--④-|
②⑤口⑥ |⑤-⑥-|
26
④②①口 |①---|
口②┃口 |②--③|
口口┃口 |-④--|
③口∧口 |⑤-⑥-|

口口⑤⑤
⑥口口⑥
口口口口
口口口口
27
④⑤口口 |①-②-|
口口②口 |--③-|
②③口③ |④-⑤-|
口⑥口① |--⑥-|
28
口口⑤④ |①-②-|
口②口口 |--③-|
③口③② |④-⑤-|
①口⑥口 |--⑥-|
29
口⑥⑥③ |①-②-|
④②口① |--③-|
口⑤⑤③ |--④-|
④②口① |⑤-⑥-|
30
③口口④ |①---|
口∨∨口 |②--③|
口┃┃口 |-④--|
口①①② |⑤---|

口口口口
口口口口
口口口口
⑤⑤⑤口
31
④⑤口口 |①-②-|
口口②口 |--③-|
②③口③ |④-⑤-|
口⑥口① |--⑥-|
32
口口⑤④ |①-②-|
口②口口 |--③-|
③口③② |④-⑤-|
①口⑥口 |--⑥-|
33
③口口⑤ |①-②-|
口①②口 |--③-|
口④④口 |--④-|
②③⑤① |⑤-⑥-|

口口口口
口⑥⑥口
口口口口
口口口口
34
②①①口 |①---|
∨口口∨ |②---|
①口口① |③---|
口口口口 |④-⑤-|

口口口③
口口口口
③口口③
口④⑤口
35
③①⑥④ |①-②-|
①③口② |③-④-|
口口⑤口 |⑤-⑥-|
口口口⑤ |⑦---|

口口口口
⑦口口口
口口口⑦
口⑦⑦口
36
③①口④ |①-②-|
口②⑤口 |③-④-|
①③口口 |⑤-⑥-|
⑥口口⑤ |⑦---|

口口⑦口
口口口口
⑦口⑦口
口⑦口口
37
③①⑥④ |①-②-|
①③口② |③-④-|
口口⑤口 |⑤-⑥-|
口口口⑤ |⑦---|

口口口口
⑦口⑦口
口口口⑦
口⑦口口
38
③①⑤④ |①-②-|
⑤②口口 |③-④-|
①③口⑤ |⑤---|
口⑤口口 |----|
39
①⑤②② |①---|
④⑧②② |②---|
①⑦⑥口 |③-④⑤|
①③口③ |-⑥⑦⑧|
40
⑨⑥⑤⑧ |①-②-|
⑦口①④ |③④⑤⑥|
②口口③ |⑦-⑧⑨|
口③②口 |----|
41
口口⑦口 |①②③④|
⑪①④⑧ |⑤⑥⑦⑧|
⑫⑤②⑨ |⑨⑩⑪⑫|
⑬⑥③⑩ |⑬-⑭⑮|

口口口口
口⑭⑮口
口口口口
口口口口
42
①④④② |①---|
④口口④ |②-③-|
④①口② |④---|
口③口③ |----|
43
④⑥⑨① |①②③-|
口⑦②⑨ |④-⑤-|
口③⑤口 |⑥⑦-⑧|
口⑧口口 |⑨---|
44
①口⑦① |①-②-|
③⑤①⑥ |③-④⑤|
⑦③口③ |--⑥-|
②口④⑥ |⑦-⑧-|

⑧口口口
口口口口
口口⑧口
口口口口
45
口⑤口① |①-②-|
①口①④ |③-④⑤|
口③口③ |--⑥-|
③⑥②口 |⑦-⑧-|

口口口⑦
口口口口
口口口口
口口口⑧
46
①口①口 |①---|
∧口∧口 |----|
①口①口 |----|
∧口∧口 |②---|

②口②口
口②口口
②口②口
口口口口
47
⑦①口⑤ |①②③-|
①⑧①口 |④--⑤|
口①口② |-⑥-⑦|
④口③⑥ |⑧-⑨⑩|

口口口口
口口口口
口口口⑨
口口⑩口
48
⑦①③⑥ |①-②-|
①⑦⑥③ |③-④⑤|
口③①⑧ |--⑥-|
②⑤⑧④ |⑦-⑧-|
49
口⑤④口 |①-②-|
②口口① |③-④⑤|
③②①口 |--⑥-|
口③口⑥ |⑦-⑧-|

口口口口
口⑧⑧⑧
口口⑦⑦
口口口口
50
①口口① |①---|
∧口口口 |②---|
①口口口 |③---|
∧②③④ |④---|
51
①⑥①⑤ |①②③-|
④⑦②① |④--⑤|
①⑧③⑤ |⑥⑦⑧⑨|
④⑨口口 |⑩⑪⑫⑬|

口口⑩口
口口⑪口
口口⑫口
口口⑬口
52
②口口④ |①-②-|
口⑥⑤口 |--③-|
口⑤⑥口 |--④-|
①口口③ |⑤-⑥-|
53
口②①口 |①-②-|
①口⑥② |--③-|
②⑤④① |--④-|
③①②③ |⑤-⑥-|
54
①②④③ |①-②-|
②口口④ |③-④-|
⑧口口⑥ |⑤-⑥-|
⑦⑧⑥⑤ |⑦-⑧-|
55
⑥口口⑤ |①②③-|
④①②③ |④--⑤|
口口①口 |-⑥-⑦|
口⑧⑦口 |⑧-⑨⑩|

口口口口
口⑩⑨口
口口口口
口口口口
56
③①①② |①---|
③口口口 |②---|
口①①② |③---|
③口口② |④-⑤-|

口⑤口口
口口⑤口
口④口口
口口④口
57
口口②① |--①-|
口②口② |--②-|
①口②④ |--③-|
口①④③ |④-⑤-|

口口口⑤
口口⑤口
口⑤口口
⑤口口口
58
∨①口口 |①---|
①∧口② |②--③|
①口口口 |-④⑤-|
口④⑤③ |⑥-⑦⑧|

口⑥⑥口
⑥⑦⑧口
口口口口
口口口口
59
①③④① |①---|
口⑤⑥口 |②---|
①⑦⑧① |③④⑤⑥|
②⑨⑩② |⑦⑧⑨⑩|
60
∨口口② |①-②-|
┃口口口 |--③-|
┃口口③ |----|
①口口① |----|
61
口口口② |①-②-|
口口口口 |--③-|
口口口③ |----|
口口口① |----|
62
口口②口 |①-②-|
①━━< |--③-|
口口口口 |----|
①口③① |----|
63
①口口② |①-②-|
┃口口口 |--③-|
┃口口③ |----|
∧口口① |----|

口口口口
①口口口
口口口口
口口口口
64
①口口③ |①-②-|
口④口口 |③---|
口②①口 |--④-|
口口③口 |⑤---|

⑤口口口
口口口口
口口口口
口⑤口口
65
口口口③ |①-②-|
口④口口 |③---|
口②①口 |--④-|
口口③口 |⑤---|

⑤口口口
口口口口
口口口口
口⑤口口
66
>⑨>⑦ |①②③④|
>⑪>⑤ |⑤⑥⑦⑧|
>⑬>③ |⑨⑩⑪⑫|
>⑮>① |⑬⑭⑮⑯|

口⑩口⑧
口⑫口⑥
口⑭口④
口⑯口②
67
⑤口④口 |①②③④|
⑥口③⑨ |⑤⑥⑦⑧|
⑦口②⑨ |⑨--⑩|
⑧口①口 |⑪---|

>━━⑩
口口口口
口口口口
口口口口

口口口⑪
口口口口
口口口口
口口口⑪
68
⑥①①口 |①②③④|
口口⑤⑦ |⑤-⑥-⑦⑧⑨-|
口②⑧口 |⑩-⑪⑫|
④口③口 |⑬⑭⑮⑯|

口口口口
口∨口口
口┃口口
口⑨口口

口⑬⑯⑭
⑪口口口
⑮口口口
口⑩口⑫
69
⑤口口口 |①②③④|
⑦①口④ |⑤-⑥-⑦⑧⑨-|
口⑧⑥② |⑩-⑪⑫|
③口口口 |⑬⑭⑮⑯|

口口口口
口口∨口
口口┃口
口口⑨口

口⑯口⑪
口口⑬口
⑫口口⑮
口⑭⑩口
70
③⑫①⑩ |①②③④|
口②⑪④ |⑤⑥⑦⑧|
口⑧⑤口 |⑨⑩⑪⑫|
⑦口⑨⑥ |⑬⑭⑮⑯|

⑮口⑬口
口⑭口口
⑯口口口
口口口口
71
>⑩⑨⑧ |①②③④|
口口⑦口 |⑤-⑥-⑦-⑧⑨|
口④②⑥ |⑩--⑪|
③①⑤口 |⑫-⑬-|

口⑪口口
口口口⑫
⑬口口口
口口口口
72
①口口⑥ |①②③④|
⑦⑤口口 |⑤-⑥-⑦⑧⑨-|
口⑧②口 |⑩-⑪⑫|
口③口④ |⑬⑭⑮⑯|

口口口口
口口∨口
口口┃口
口口⑨口

⑭⑯⑬口
口口口⑪
口口口⑮
⑫口⑩口
73
口口口⑤ |①②③④|
④口①⑦ |⑤-⑥-⑦⑧⑨-|
②⑥⑧口 |⑩-⑪⑫|
口口口③ |⑬⑭⑮⑯|

口口口口
口∨口口
口┃口口
口⑨口口

⑪口⑯口
口⑬口口
⑮口口⑫
口⑩⑭口
74
⑩①⑫③ |①②③④|
④⑪②口 |⑤⑥⑦⑧|
口⑤⑧口 |⑨⑩⑪⑫|
⑥⑨口⑦ |⑬⑭⑮⑯|

口⑬口⑮
口口⑭口
口口口⑯
口口口口
75
⑧⑨⑩< |①②③④|
口⑦口口 |⑤-⑥-⑦-⑧⑨|
⑥②④口 |⑩--⑪|
口⑤①③ |⑫---|

口口⑪口
⑫口⑫口
口口口口
⑫口⑫口
76
口口口口 |----|
口口口口 |----|
口口口口 |----|
口口口口 |----|
最終更新:2021年04月19日 11:45