アットウィキロゴ
すきなことだけでいいです
ピノキオピー

BASIC

Level: 4
BPM: 140
Notes: 192

1
口口口口 |----|
口口口口 |----|
口口口口 |----|
口口口口 |----|
2
口②口① |①---|
口口口口 |----|
口口口口 |②---|
口口口口 |----|
3
口口口口 |①---|
口②口① |----|
口口口口 |②---|
口口口口 |----|
4
口口口口 |①---|
口口口口 |----|
口②口① |②---|
口口口口 |----|
5
口口口口 |①---|
④③②① |②---|
口口口口 |③---|
口口口口 |④---|
6
口口①口 |①---|
口②口口 |----|
口口口口 |②---|
口口口口 |----|
7
口口口口 |①---|
口口口口 |----|
口③①口 |②---|
口②口口 |③---|
8
口①口口 |①---|
口口②口 |----|
口口口口 |②---|
口口口口 |----|
9
口口口口 |①---|
口口口口 |----|
口①③口 |②---|
口口②口 |③---|
10
②口①口 |①---|
口口口口 |----|
口口口口 |②---|
口口口口 |----|
11
口口口口 |①---|
②口①口 |----|
口口口口 |②---|
口口口口 |----|
12
口口口口 |①---|
口口口口 |----|
②口①口 |②---|
口口口口 |----|
13
口口口口 |①---|
口口口口 |----|
口口口口 |②---|
②口①口 |----|
14
口口口口 |①---|
口口口口 |----|
口口口口 |②---|
口①口② |----|
15
口口口口 |①---|
口口口口 |----|
口①口② |②---|
口口口口 |----|
16
口口口口 |①---|
口①口② |----|
口口口口 |②---|
口口口口 |----|
17
口①口② |①---|
口口口口 |----|
口口口口 |②---|
口口口口 |----|
18
①①口② |①---|
口口口口 |----|
口口口口 |②---|
口口口口 |----|
19
口口口口 |①---|
①①口② |----|
口口口口 |②---|
口口口口 |----|
20
口口口口 |①---|
口口口口 |----|
①①口② |②---|
口口口口 |----|
21
口口口口 |①---|
口口口口 |----|
口口口口 |②---|
①①口② |----|
22
口口口口 |①---|
口口口口 |----|
口口口口 |②---|
①①口② |----|
23
口口口口 |①---|
口口口口 |----|
①①口② |②---|
口口口口 |----|
24
口口口口 |①---|
①①口② |----|
口口口口 |②---|
口口口口 |----|
25
口①①口 |①---|
口②②口 |②---|
口③③口 |③---|
口口口口 |----|
26
①口口口 |①---|
口②口口 |----|
口口口口 |②---|
口口口口 |----|
27
口口口口 |①---|
口口口口 |----|
口口①口 |②---|
口口口② |----|
28
口口口口 |①---|
口口口② |----|
口口口① |②---|
口口口口 |----|
29
口口口口 |①---|
口①②口 |②---|
口口口口 |----|
口口口口 |----|
30
口口口① |①---|
口口②口 |----|
口口口口 |②---|
口口口口 |----|
31
口口口口 |①---|
口口口口 |----|
口①口口 |②---|
②口口口 |----|
32
口口口口 |①---|
②口口口 |----|
①口口口 |②---|
口口口口 |----|
33
口口①口 |①---|
口②口口 |②---|
口口③口 |③---|
口口口口 |----|
34
口口口① |①---|
口口②口 |②---|
口③口口 |③---|
口口口口 |----|
35
口口口口 |①---|
④③②① |②---|
口口口口 |③---|
口口口口 |④---|
36
①口口口 |①---|
口②口口 |②---|
口口③口 |③---|
口口口口 |----|
37
口口口口 |①---|
①②③④ |②---|
口口口口 |③---|
口口口口 |④---|
38
口口口① |①---|
口口②口 |②---|
口③口口 |③---|
口口口口 |----|
39
①口口口 |①---|
口②口口 |②---|
口口③口 |③---|
口口口口 |----|
40
口①①口 |①---|
口②②口 |----|
口口口口 |②---|
口口口口 |----|
41
口口口口 |①---|
口口口口 |----|
②①①② |②---|
口口口口 |----|
42
口口口口 |①---|
口③③① |②---|
口口口口 |③---|
口口②口 |----|
43
口口口口 |①---|
口口口口 |②---|
④③②① |③---|
口口口口 |④---|
44
口口口口 |①---|
①③③口 |②---|
口口口口 |③---|
口②口口 |----|
45
口口口口 |①---|
口口口口 |②---|
①②③④ |③---|
口口口口 |④---|
46
口口口口 |①---|
口③③① |②---|
口口口口 |③---|
口口②口 |----|
47
口口口口 |①---|
①③③口 |②---|
口口口口 |③---|
口②口口 |----|
48
口①①口 |①---|
口②②口 |----|
口口口口 |②---|
口口口口 |----|
49
口口口口 |①---|
①口口① |②---|
②口口② |③---|
③口口③ |----|
50
口口口口 |①---|
口③口① |②---|
口口口口 |③---|
④口②口 |④---|
51
口口口口 |①---|
①口③口 |②---|
口口口口 |③---|
口②口④ |④---|
52
口③口① |①---|
口口口口 |②---|
④口②口 |③---|
口口口口 |④---|
53
①口③口 |①---|
口口口口 |②---|
口②口④ |③---|
口口口口 |④---|
54
口口口口 |①---|
口③③① |②---|
④口口口 |③---|
口口②口 |④---|
55
①③③口 |①---|
口口口④ |②---|
口②口口 |③---|
口口口口 |④---|
56
②口口① |①---|
④口口③ |②---|
口口口口 |③---|
口口口口 |④---|
57
口①①口 |①---|
口②②口 |②---|
口③③口 |③---|
口④④口 |④---|
58
口口①口 |①---|
口②口口 |----|
口口口口 |②---|
口口口口 |----|
59
口口口口 |①---|
口口口口 |----|
口③①口 |②---|
口②口口 |③---|
60
口①口口 |①---|
口口②口 |----|
口口口口 |②---|
口口口口 |----|
61
口口口口 |①---|
口口口口 |----|
口①③口 |②---|
口口②口 |③---|
62
口①①口 |①---|
口口口口 |----|
口口口口 |----|
口口口口 |----|
63
口口口口 |----|
口口口口 |----|
口口口口 |----|
口口口口 |----|
64
口口口口 |----|
口口口口 |----|
口口口口 |----|
口口口口 |----|
65
口口口口 |----|
口口口口 |----|
口口口口 |----|
口口口口 |----|

accuracy: 99.5%
最終更新:2023年01月17日 11:27